  0
SECTION
  2
HEADER
  9
$ACADVER
  1
AC1003
  9
$INSBASE
 10
0.0
 20
0.0
  9
$EXTMIN
 10
0.0
 20
0.0
  9
$EXTMAX
 10
210.0
 20
297.0
  9
$LIMMIN
 10
0.0
 20
0.0
  9
$LIMMAX
 10
12.0
 20
9.0
  9
$VIEWCTR
 10
6.591288
 20
4.579184
  9
$VIEWSIZE
 40
9.158369
  9
$SNAPMODE
 70
     0
  9
$SNAPUNIT
 10
1.0
 20
1.0
  9
$SNAPBASE
 10
0.0
 20
0.0
  9
$SNAPANG
 50
0.0
  9
$SNAPSTYLE
 70
     0
  9
$SNAPISOPAIR
 70
     0
  9
$GRIDMODE
 70
     0
  9
$GRIDUNIT
 10
0.0
 20
0.0
  9
$ORTHOMODE
 70
     0
  9
$REGENMODE
 70
     1
  9
$FILLMODE
 70
     1
  9
$QTEXTMODE
 70
     0
  9
$DRAGMODE
 70
     2
  9
$LTSCALE
 40
4.95
  9
$OSMODE
 70
     0
  9
$ATTMODE
 70
     1
  9
$TEXTSIZE
 40
3.2
  9
$TRACEWID
 40
0.05
  9
$TEXTSTYLE
  7
STANDARD
  9
$CLAYER
  8
0
  9
$CELTYPE
  6
CONTINUOUS
  9
$CECOLOR
 62
   256
  9
$DIMSCALE
 40
1.0
  9
$DIMASZ
 40
0.18
  9
$DIMEXO
 40
0.0625
  9
$DIMDLI
 40
0.38
  9
$DIMRND
 40
0.0
  9
$DIMDLE
 40
0.0
  9
$DIMEXE
 40
0.18
  9
$DIMTP
 40
0.0
  9
$DIMTM
 40
0.0
  9
$DIMTXT
 40
0.18
  9
$DIMCEN
 40
0.09
  9
$DIMTSZ
 40
0.0
  9
$DIMTOL
 70
     0
  9
$DIMLIM
 70
     0
  9
$DIMTIH
 70
     1
  9
$DIMTOH
 70
     1
  9
$DIMSE1
 70
     0
  9
$DIMSE2
 70
     0
  9
$DIMTAD
 70
     0
  9
$DIMZIN
 70
     0
  9
$DIMBLK
  1

  9
$DIMASO
 70
     1
  9
$DIMSHO
 70
     1
  9
$DIMPOST
  1

  9
$DIMAPOST
  1

  9
$DIMALT
 70
     0
  9
$DIMALTD
 70
     2
  9
$DIMALTF
 40
25.4
  9
$DIMLFAC
 40
1.0
  9
$LUNITS
 70
     2
  9
$LUPREC
 70
     4
  9
$AXISMODE
 70
     0
  9
$AXISUNIT
 10
0.0
 20
0.0
  9
$SKETCHINC
 40
0.1
  9
$FILLETRAD
 40
0.0
  9
$AUNITS
 70
     0
  9
$AUPREC
 70
     0
  9
$MENU
  1
acad
  9
$ELEVATION
 40
0.0
  9
$THICKNESS
 40
0.0
  9
$VIEWDIR
 10
0.0
 20
0.0
 30
1.0
  9
$LIMCHECK
 70
     0
  9
$BLIPMODE
 70
     1
  9
$CHAMFERA
 40
0.0
  9
$CHAMFERB
 40
0.0
  9
$FASTZOOM
 70
     1
  9
$SKPOLY
 70
     0
  9
$TDCREATE
 40
0.000000000
  9
$TDUPDATE
 40
0.000000000
  9
$TDINDWG
 40
0.0000000000
  9
$TDUSRTIMER
 40
0.0000000000
  9
$USRTIMER
 70
     1
  9
$ANGBASE
 50
0.0
  9
$ANGDIR
 70
     0
  9
$PDMODE
 70
     0
  9
$PDSIZE
 40
0.0
  9
$PLINEWID
 40
0.0
  9
$COORDS
 70
     1
  9
$USERI1
 70
     0
  9
$USERI2
 70
     0
  9
$USERI3
 70
     0
  9
$USERI4
 70
     0
  9
$USERI5
 70
     0
  9
$USERR1
 40
0.0
  9
$USERR2
 40
0.0
  9
$USERR3
 40
0.0
  9
$USERR4
 40
0.0
  9
$USERR5
 40
0.0
  0
ENDSEC
  0
SECTION
  2
TABLES
  0
TABLE
  2
LTYPE
 70
     5
  0
LTYPE
  2
CONTINUOUS
 70
    64
  3
Solid line
 72
    65
 73
     0
 40
0.0
  0
LTYPE
  2
DASHED
 70
    64
  3
DASHED
 72
    65
 73
     2
 40
0.75
 49
0.5
 49
-0.25
  0
LTYPE
  2
HIDDEN
 70
    64
  3
HIDDEN
 72
    65
 73
     2
 40
0.375
 49
0.25
 49
-0.125
  0
LTYPE
  2
CENTER
 70
    64
  3
CENTER
 72
    65
 73
     4
 40
2.0
 49
1.25
 49
-0.25
 49
0.25
 49
-0.25
  0
LTYPE
  2
PHANTOM
 70
    64
  3
PHANTOM
 72
    65
 73
     6
 40
2.5
 49
1.25
 49
-0.25
 49
0.25
 49
-0.25
 49
0.25
 49
-0.25
  0
ENDTAB
  0
TABLE
  2
LAYER
 70
     2
  0
LAYER
  2
0
 70
     0
 62
     7
  6
CONTINUOUS
  0
LAYER
  2
001
 70
     0
 62
     7
  6
CONTINUOUS
  0
ENDTAB
  0
TABLE
  2
STYLE
 70
     2
  0
STYLE
  2
STANDARD
 70
     0
 40
0.0
 41
1.0
 50
0.0
 71
     0
 42
0.2
  3
TXT
  4
BIGFONT
  0
STYLE
  2
TATEGAKI
 70
     4
 40
1.0
 41
1.0
 50
0.0
 71
     0
 42
0.2
  3
TXT
  4
BIGFONT
  0
ENDTAB
  0
TABLE
  2
VIEW
 70
     0
  0
ENDTAB
  0
ENDSEC
  0
SECTION
  2
BLOCKS
  0
BLOCK
  8
001
  2
*D0
 70
     1
 10
0.0
 20
0.0
  0
LINE
  8
001
 10
60.837494
 20
181.294495
 11
60.837494
 21
191.935939
  0
LINE
  8
001
 10
73.837494
 20
181.694495
 11
73.837494
 21
191.935939
  0
LINE
  8
001
 10
60.837494
 20
190.935939
 11
73.837494
 21
190.935939
  0
POLYLINE
  8
001
 66
     1
  0
VERTEX
  8
001
 10
62.837494
 20
190.400041
  0
VERTEX
  8
001
 10
60.837494
 20
190.935939
  0
VERTEX
  8
001
 10
62.837494
 20
191.471837
  0
SEQEND
  8
001
  0
POLYLINE
  8
001
 66
     1
  0
VERTEX
  8
001
 10
71.837494
 20
191.471837
  0
VERTEX
  8
001
 10
73.837494
 20
190.935939
  0
VERTEX
  8
001
 10
71.837494
 20
190.400041
  0
SEQEND
  8
001
  0
TEXT
  8
001
 10
64.241494
 20
191.935939
 40
3.6
  1
13
 41
1.032
  0
POINT
  8
001
 10
60.837494
 20
181.294495
  0
POINT
  8
001
 10
73.837494
 20
181.694495
  0
POINT
  8
001
 10
73.837494
 20
190.935939
  0
ENDBLK
  8
001
  0
BLOCK
  8
001
  2
*D1
 70
     1
 10
0.0
 20
0.0
  0
LINE
  8
001
 10
74.737494
 20
173.794495
 11
88.063336
 21
173.794495
  0
LINE
  8
001
 10
74.737494
 20
180.794495
 11
88.063336
 21
180.794495
  0
LINE
  8
001
 10
87.063336
 20
173.794495
 11
87.063336
 21
180.794495
  0
POLYLINE
  8
001
 66
     1
  0
VERTEX
  8
001
 10
86.527437
 20
171.794495
  0
VERTEX
  8
001
 10
87.063336
 20
173.794495
  0
VERTEX
  8
001
 10
87.599234
 20
171.794495
  0
SEQEND
  8
001
  0
POLYLINE
  8
001
 66
     1
  0
VERTEX
  8
001
 10
87.599234
 20
182.794495
  0
VERTEX
  8
001
 10
87.063336
 20
180.794495
  0
VERTEX
  8
001
 10
86.527437
 20
182.794495
  0
SEQEND
  8
001
  0
TEXT
  8
001
 10
86.063336
 20
184.594495
 40
3.6
  1
%%c7
 50
90.000003
 41
0.86
  0
POINT
  8
001
 10
74.737494
 20
173.794495
  0
POINT
  8
001
 10
74.737494
 20
180.794495
  0
POINT
  8
001
 10
87.063336
 20
180.794495
  0
LINE
  8
001
 10
87.063336
 20
173.794495
 11
87.063336
 21
170.794495
  0
LINE
  8
001
 10
87.063336
 20
180.794495
 11
87.063336
 21
191.786494
  0
ENDBLK
  8
001
  0
BLOCK
  8
001
  2
DIM-1
 70
     0
 10
0.0
 20
0.0
  0
TEXT
  8
001
 10
153.132455
 20
193.005867
 40
3.6
  1
黄銅
 41
0.716667
  0
POLYLINE
  8
001
 66
     1
 70
     1
 40
0.5
 41
0.5
  0
VERTEX
  8
001
 10
145.045976
 20
179.489365
 42
1.0
  0
VERTEX
  8
001
 10
144.545976
 20
179.489365
 42
1.0
  0
SEQEND
  8
001
  0
POLYLINE
  8
001
 66
     1
  0
VERTEX
  8
001
 10
144.795976
 20
179.489365
  0
VERTEX
  8
001
 10
151.132455
 20
192.005867
  0
VERTEX
  8
001
 10
161.324455
 20
192.005867
  0
SEQEND
  8
001
  0
ENDBLK
  8
001
  0
BLOCK
  8
001
  2
DIM-2
 70
     0
 10
0.0
 20
0.0
  0
TEXT
  8
001
 10
123.951833
 20
165.451343
 40
3.6
  1
軟鋼
 41
0.716667
  0
POLYLINE
  8
001
 66
     1
 70
     1
 40
0.5
 41
0.5
  0
VERTEX
  8
001
 10
142.328806
 20
174.777457
 42
1.0
  0
VERTEX
  8
001
 10
141.828806
 20
174.777457
 42
1.0
  0
SEQEND
  8
001
  0
POLYLINE
  8
001
 66
     1
  0
VERTEX
  8
001
 10
142.078806
 20
174.777457
  0
VERTEX
  8
001
 10
132.143833
 20
164.451343
  0
VERTEX
  8
001
 10
121.951833
 20
164.451343
  0
SEQEND
  8
001
  0
ENDBLK
  8
001
  0
BLOCK
  8
001
  2
DIM-3
 70
     0
 10
0.0
 20
0.0
  0
TEXT
  8
001
 10
157.063376
 20
162.216124
 40
3.6
  1
アルニコ磁石
 41
0.716667
  0
POLYLINE
  8
001
 66
     1
 70
     1
 40
0.5
 41
0.5
  0
VERTEX
  8
001
 10
145.119197
 20
176.352935
 42
1.0
  0
VERTEX
  8
001
 10
144.619197
 20
176.352935
 42
1.0
  0
SEQEND
  8
001
  0
POLYLINE
  8
001
 66
     1
  0
VERTEX
  8
001
 10
144.869197
 20
176.352935
  0
VERTEX
  8
001
 10
155.063376
 20
161.216124
  0
VERTEX
  8
001
 10
177.639376
 20
161.216124
  0
SEQEND
  8
001
  0
ENDBLK
  8
001
  0
BLOCK
  8
001
  2
DIM-4
 70
     0
 10
0.0
 20
0.0
  0
TEXT
  8
001
 10
92.855047
 20
156.350504
 40
3.6
  1
吸着面
 41
0.716667
  0
POLYLINE
  8
001
 66
     1
  0
VERTEX
  8
001
 10
74.675909
 20
174.557693
  0
VERTEX
  8
001
 10
73.837494
 20
176.450904
  0
VERTEX
  8
001
 10
75.510188
 20
175.230542
  0
SEQEND
  8
001
  0
POLYLINE
  8
001
 66
     1
  0
VERTEX
  8
001
 10
73.837494
 20
176.450904
  0
VERTEX
  8
001
 10
90.855047
 20
155.350504
  0
VERTEX
  8
001
 10
104.143047
 20
155.350504
  0
SEQEND
  8
001
  0
ENDBLK
  8
001
  0
ENDSEC
  0
SECTION
  2
ENTITIES
  0
DIMENSION
  8
001
  2
*D0
 10
73.837494
 20
190.935939
 11
64.241494
 21
191.935939
 13
60.837494
 23
181.294495
 14
73.837494
 24
181.694495
  0
DIMENSION
  8
001
  2
*D1
 10
87.063336
 20
180.794495
 11
86.063336
 21
184.594495
 13
74.737494
 23
173.794495
 14
74.737494
 24
180.794495
 50
90.0
  0
INSERT
  8
001
  6
BYBLOCK
 62
     0
  2
DIM-1
 10
0.0
 20
0.0
  0
INSERT
  8
001
  6
BYBLOCK
 62
     0
  2
DIM-2
 10
0.0
 20
0.0
  0
INSERT
  8
001
  6
BYBLOCK
 62
     0
  2
DIM-3
 10
0.0
 20
0.0
  0
INSERT
  8
001
  6
BYBLOCK
 62
     0
  2
DIM-4
 10
0.0
 20
0.0
  0
LINE
  8
001
 10
0.0
 20
297.0
 11
210.0
 21
297.0
  0
LINE
  8
001
 10
210.0
 20
297.0
 11
210.0
 21
0.0
  0
LINE
  8
001
 10
210.0
 20
0.0
 11
0.0
 21
0.0
  0
LINE
  8
001
 10
0.0
 20
0.0
 11
0.0
 21
297.0
  0
TEXT
  8
001
 10
147.594426
 20
21.847548
 40
3.6
  1
KM-0007L
 41
0.917333
  0
LINE
  8
001
  6
CENTER
 10
58.837494
 20
177.294495
 11
76.296817
 21
177.294495
  0
LINE
  8
001
 62
     3
 10
60.837494
 20
174.294495
 11
60.837494
 21
180.294495
  0
LINE
  8
001
 62
     3
 10
73.837494
 20
180.694495
 11
73.837494
 21
173.894495
  0
LINE
  8
001
  6
CENTER
 10
144.180351
 20
172.294495
 11
144.180351
 21
182.294495
  0
LINE
  8
001
  6
CENTER
 10
139.180351
 20
177.294495
 11
149.180351
 21
177.294495
  0
LINE
  8
001
 62
     3
 10
73.737494
 20
173.794495
 11
61.337494
 21
173.794495
  0
LINE
  8
001
 62
     3
 10
73.737494
 20
180.794495
 11
61.337494
 21
180.794495
  0
CIRCLE
  8
001
 62
     3
 10
144.180351
 20
177.294495
 40
3.5
  0
LINE
  8
001
 62
     3
 10
61.337494
 20
180.794495
 11
60.837494
 21
180.294495
  0
LINE
  8
001
 62
     3
 10
60.837494
 20
174.294495
 11
61.337494
 21
173.794495
  0
LINE
  8
001
 10
61.337494
 20
173.794495
 11
61.337494
 21
180.794495
  0
CIRCLE
  8
001
 10
144.180351
 20
177.294495
 40
2.8
  0
CIRCLE
  8
001
 10
144.180351
 20
177.294495
 40
2.0
  0
LINE
  8
001
 62
     3
 10
73.837494
 20
173.894495
 11
73.737494
 21
173.794495
  0
LINE
  8
001
 62
     3
 10
73.837494
 20
180.694495
 11
73.737494
 21
180.794495
  0
LINE
  8
001
  6
DASHED
 10
73.837494
 20
180.094495
 11
70.837494
 21
180.094495
  0
LINE
  8
001
  6
DASHED
 10
73.837494
 20
174.494495
 11
70.837494
 21
174.494495
  0
TEXT
  8
001
 10
92.409344
 20
114.924918
 40
3.6
  1
表面処理：　ニッケルメッキ　
 41
0.716667
  0
LINE
  8
001
 10
92.409344
 20
113.924918
 11
135.753344
 21
113.924918
  0
LINE
  8
001
  6
DASHED
 10
73.837494
 20
179.294495
 11
70.837494
 21
179.294495
  0
LINE
  8
001
  6
DASHED
 10
73.837494
 20
175.294495
 11
70.837494
 21
175.294495
  0
ENDSEC
  0
EOF
