  0
SECTION
  2
HEADER
  9
$ACADVER
  1
AC1003
  9
$INSBASE
 10
0.0
 20
0.0
  9
$EXTMIN
 10
0.0
 20
0.0
  9
$EXTMAX
 10
210.0
 20
297.0
  9
$LIMMIN
 10
0.0
 20
0.0
  9
$LIMMAX
 10
12.0
 20
9.0
  9
$VIEWCTR
 10
6.591288
 20
4.579184
  9
$VIEWSIZE
 40
9.158369
  9
$SNAPMODE
 70
     0
  9
$SNAPUNIT
 10
1.0
 20
1.0
  9
$SNAPBASE
 10
0.0
 20
0.0
  9
$SNAPANG
 50
0.0
  9
$SNAPSTYLE
 70
     0
  9
$SNAPISOPAIR
 70
     0
  9
$GRIDMODE
 70
     0
  9
$GRIDUNIT
 10
0.0
 20
0.0
  9
$ORTHOMODE
 70
     0
  9
$REGENMODE
 70
     1
  9
$FILLMODE
 70
     1
  9
$QTEXTMODE
 70
     0
  9
$DRAGMODE
 70
     2
  9
$LTSCALE
 40
4.95
  9
$OSMODE
 70
     0
  9
$ATTMODE
 70
     1
  9
$TEXTSIZE
 40
3.2
  9
$TRACEWID
 40
0.05
  9
$TEXTSTYLE
  7
STANDARD
  9
$CLAYER
  8
0
  9
$CELTYPE
  6
CONTINUOUS
  9
$CECOLOR
 62
   256
  9
$DIMSCALE
 40
1.0
  9
$DIMASZ
 40
0.18
  9
$DIMEXO
 40
0.0625
  9
$DIMDLI
 40
0.38
  9
$DIMRND
 40
0.0
  9
$DIMDLE
 40
0.0
  9
$DIMEXE
 40
0.18
  9
$DIMTP
 40
0.0
  9
$DIMTM
 40
0.0
  9
$DIMTXT
 40
0.18
  9
$DIMCEN
 40
0.09
  9
$DIMTSZ
 40
0.0
  9
$DIMTOL
 70
     0
  9
$DIMLIM
 70
     0
  9
$DIMTIH
 70
     1
  9
$DIMTOH
 70
     1
  9
$DIMSE1
 70
     0
  9
$DIMSE2
 70
     0
  9
$DIMTAD
 70
     0
  9
$DIMZIN
 70
     0
  9
$DIMBLK
  1

  9
$DIMASO
 70
     1
  9
$DIMSHO
 70
     1
  9
$DIMPOST
  1

  9
$DIMAPOST
  1

  9
$DIMALT
 70
     0
  9
$DIMALTD
 70
     2
  9
$DIMALTF
 40
25.4
  9
$DIMLFAC
 40
1.0
  9
$LUNITS
 70
     2
  9
$LUPREC
 70
     4
  9
$AXISMODE
 70
     0
  9
$AXISUNIT
 10
0.0
 20
0.0
  9
$SKETCHINC
 40
0.1
  9
$FILLETRAD
 40
0.0
  9
$AUNITS
 70
     0
  9
$AUPREC
 70
     0
  9
$MENU
  1
acad
  9
$ELEVATION
 40
0.0
  9
$THICKNESS
 40
0.0
  9
$VIEWDIR
 10
0.0
 20
0.0
 30
1.0
  9
$LIMCHECK
 70
     0
  9
$BLIPMODE
 70
     1
  9
$CHAMFERA
 40
0.0
  9
$CHAMFERB
 40
0.0
  9
$FASTZOOM
 70
     1
  9
$SKPOLY
 70
     0
  9
$TDCREATE
 40
0.000000000
  9
$TDUPDATE
 40
0.000000000
  9
$TDINDWG
 40
0.0000000000
  9
$TDUSRTIMER
 40
0.0000000000
  9
$USRTIMER
 70
     1
  9
$ANGBASE
 50
0.0
  9
$ANGDIR
 70
     0
  9
$PDMODE
 70
     0
  9
$PDSIZE
 40
0.0
  9
$PLINEWID
 40
0.0
  9
$COORDS
 70
     1
  9
$USERI1
 70
     0
  9
$USERI2
 70
     0
  9
$USERI3
 70
     0
  9
$USERI4
 70
     0
  9
$USERI5
 70
     0
  9
$USERR1
 40
0.0
  9
$USERR2
 40
0.0
  9
$USERR3
 40
0.0
  9
$USERR4
 40
0.0
  9
$USERR5
 40
0.0
  0
ENDSEC
  0
SECTION
  2
TABLES
  0
TABLE
  2
LTYPE
 70
     5
  0
LTYPE
  2
CONTINUOUS
 70
    64
  3
Solid line
 72
    65
 73
     0
 40
0.0
  0
LTYPE
  2
DASHED
 70
    64
  3
DASHED
 72
    65
 73
     2
 40
0.75
 49
0.5
 49
-0.25
  0
LTYPE
  2
HIDDEN
 70
    64
  3
HIDDEN
 72
    65
 73
     2
 40
0.375
 49
0.25
 49
-0.125
  0
LTYPE
  2
CENTER
 70
    64
  3
CENTER
 72
    65
 73
     4
 40
2.0
 49
1.25
 49
-0.25
 49
0.25
 49
-0.25
  0
LTYPE
  2
PHANTOM
 70
    64
  3
PHANTOM
 72
    65
 73
     6
 40
2.5
 49
1.25
 49
-0.25
 49
0.25
 49
-0.25
 49
0.25
 49
-0.25
  0
ENDTAB
  0
TABLE
  2
LAYER
 70
     2
  0
LAYER
  2
0
 70
     0
 62
     7
  6
CONTINUOUS
  0
LAYER
  2
001
 70
     0
 62
     7
  6
CONTINUOUS
  0
ENDTAB
  0
TABLE
  2
STYLE
 70
     2
  0
STYLE
  2
STANDARD
 70
     0
 40
0.0
 41
1.0
 50
0.0
 71
     0
 42
0.2
  3
TXT
  4
BIGFONT
  0
STYLE
  2
TATEGAKI
 70
     4
 40
1.0
 41
1.0
 50
0.0
 71
     0
 42
0.2
  3
TXT
  4
BIGFONT
  0
ENDTAB
  0
TABLE
  2
VIEW
 70
     0
  0
ENDTAB
  0
ENDSEC
  0
SECTION
  2
BLOCKS
  0
BLOCK
  8
001
  2
*D0
 70
     1
 10
0.0
 20
0.0
  0
LINE
  8
001
 10
75.620521
 20
184.341681
 11
75.620521
 21
193.258301
  0
LINE
  8
001
 10
83.620521
 20
184.841681
 11
83.620521
 21
193.258301
  0
LINE
  8
001
 10
75.620521
 20
192.258301
 11
83.620521
 21
192.258301
  0
POLYLINE
  8
001
 66
     1
  0
VERTEX
  8
001
 10
77.620521
 20
191.722403
  0
VERTEX
  8
001
 10
75.620521
 20
192.258301
  0
VERTEX
  8
001
 10
77.620521
 20
192.794199
  0
SEQEND
  8
001
  0
POLYLINE
  8
001
 66
     1
  0
VERTEX
  8
001
 10
81.620521
 20
192.794199
  0
VERTEX
  8
001
 10
83.620521
 20
192.258301
  0
VERTEX
  8
001
 10
81.620521
 20
191.722403
  0
SEQEND
  8
001
  0
TEXT
  8
001
 10
78.245521
 20
193.258301
 40
3.6
  1
8
 41
0.763889
  0
POINT
  8
001
 10
75.620521
 20
184.341681
  0
POINT
  8
001
 10
83.620521
 20
184.841681
  0
POINT
  8
001
 10
83.620521
 20
192.258301
  0
ENDBLK
  8
001
  0
BLOCK
  8
001
  2
*D1
 70
     1
 10
0.0
 20
0.0
  0
LINE
  8
001
 10
84.620521
 20
183.841681
 11
96.780682
 21
183.841681
  0
LINE
  8
001
 10
84.620521
 20
173.841681
 11
96.780682
 21
173.841681
  0
LINE
  8
001
 10
95.780682
 20
183.841681
 11
95.780682
 21
173.841681
  0
POLYLINE
  8
001
 66
     1
  0
VERTEX
  8
001
 10
95.244784
 20
181.841681
  0
VERTEX
  8
001
 10
95.780682
 20
183.841681
  0
VERTEX
  8
001
 10
96.31658
 20
181.841681
  0
SEQEND
  8
001
  0
POLYLINE
  8
001
 66
     1
  0
VERTEX
  8
001
 10
96.31658
 20
175.841681
  0
VERTEX
  8
001
 10
95.780682
 20
173.841681
  0
VERTEX
  8
001
 10
95.244784
 20
175.841681
  0
SEQEND
  8
001
  0
TEXT
  8
001
 10
94.780682
 20
174.716681
 40
3.6
  1
%%c10
 50
90.000003
 41
0.916667
  0
POINT
  8
001
 10
84.620521
 20
183.841681
  0
POINT
  8
001
 10
84.620521
 20
173.841681
  0
POINT
  8
001
 10
95.780682
 20
173.841681
  0
ENDBLK
  8
001
  0
BLOCK
  8
001
  2
DIM-1
 70
     0
 10
0.0
 20
0.0
  0
TEXT
  8
001
 10
97.692085
 20
165.788315
 40
3.6
  1
吸着面
 41
0.833333
  0
POLYLINE
  8
001
 66
     1
  0
VERTEX
  8
001
 10
84.462386
 20
175.832201
  0
VERTEX
  8
001
 10
83.620521
 20
177.72388
  0
VERTEX
  8
001
 10
85.295437
 20
176.50657
  0
SEQEND
  8
001
  0
POLYLINE
  8
001
 66
     1
  0
VERTEX
  8
001
 10
83.620521
 20
177.72388
  0
VERTEX
  8
001
 10
94.092085
 20
164.788315
  0
VERTEX
  8
001
 10
111.892085
 20
164.788315
  0
SEQEND
  8
001
  0
ENDBLK
  8
001
  0
BLOCK
  8
001
  2
DIM-2
 70
     0
 10
0.0
 20
0.0
  0
TEXT
  8
001
 10
152.062324
 20
195.269671
 40
3.6
  1
黄銅
 41
0.716667
  0
POLYLINE
  8
001
 66
     1
 70
     1
 40
0.5
 41
0.5
  0
VERTEX
  8
001
 10
143.975845
 20
181.753169
 42
1.0
  0
VERTEX
  8
001
 10
143.475845
 20
181.753169
 42
1.0
  0
SEQEND
  8
001
  0
POLYLINE
  8
001
 66
     1
  0
VERTEX
  8
001
 10
143.725845
 20
181.753169
  0
VERTEX
  8
001
 10
150.062324
 20
194.269671
  0
VERTEX
  8
001
 10
160.254324
 20
194.269671
  0
SEQEND
  8
001
  0
ENDBLK
  8
001
  0
BLOCK
  8
001
  2
DIM-3
 70
     0
 10
0.0
 20
0.0
  0
TEXT
  8
001
 10
155.075489
 20
163.616158
 40
3.6
  1
軟鋼
 41
0.716667
  0
POLYLINE
  8
001
 66
     1
 70
     1
 40
0.5
 41
0.5
  0
VERTEX
  8
001
 10
143.13131
 20
177.752969
 42
1.0
  0
VERTEX
  8
001
 10
142.63131
 20
177.752969
 42
1.0
  0
SEQEND
  8
001
  0
POLYLINE
  8
001
 66
     1
 70
     1
 40
0.5
 41
0.5
  0
VERTEX
  8
001
 10
143.080361
 20
174.340092
 42
1.0
  0
VERTEX
  8
001
 10
142.580361
 20
174.340092
 42
1.0
  0
SEQEND
  8
001
  0
POLYLINE
  8
001
 66
     1
  0
VERTEX
  8
001
 10
142.88131
 20
177.752969
  0
VERTEX
  8
001
 10
153.075489
 20
162.616158
  0
VERTEX
  8
001
 10
163.267489
 20
162.616158
  0
SEQEND
  8
001
  0
POLYLINE
  8
001
 66
     1
  0
VERTEX
  8
001
 10
142.830361
 20
174.340092
  0
VERTEX
  8
001
 10
153.075489
 20
162.616158
  0
SEQEND
  8
001
  0
ENDBLK
  8
001
  0
ENDSEC
  0
SECTION
  2
ENTITIES
  0
DIMENSION
  8
001
  2
*D0
 10
83.620521
 20
192.258301
 11
78.245521
 21
193.258301
 13
75.620521
 23
184.341681
 14
83.620521
 24
184.841681
  0
DIMENSION
  8
001
  2
*D1
 10
95.780682
 20
173.841681
 11
94.780682
 21
174.716681
 13
84.620521
 23
183.841681
 14
84.620521
 24
173.841681
 50
270.0
  0
INSERT
  8
001
  6
BYBLOCK
 62
     0
  2
DIM-1
 10
0.0
 20
0.0
  0
INSERT
  8
001
  6
BYBLOCK
 62
     0
  2
DIM-2
 10
0.0
 20
0.0
  0
INSERT
  8
001
  6
BYBLOCK
 62
     0
  2
DIM-3
 10
0.0
 20
0.0
  0
LINE
  8
001
  6
CENTER
 10
73.620521
 20
178.841681
 11
85.745677
 21
178.841681
  0
LINE
  8
001
 62
     3
 10
75.620521
 20
174.341681
 11
75.620521
 21
183.341681
  0
LINE
  8
001
 10
76.120521
 20
173.841681
 11
76.120521
 21
183.841681
  0
LINE
  8
001
 62
     3
 10
83.420521
 20
173.841681
 11
76.120521
 21
173.841681
  0
LINE
  8
001
 62
     3
 10
83.420521
 20
183.841681
 11
76.120521
 21
183.841681
  0
LINE
  8
001
 62
     3
 10
83.620521
 20
174.041681
 11
83.620521
 21
183.641681
  0
LINE
  8
001
 62
     3
 10
76.120521
 20
183.841681
 11
75.620521
 21
183.341681
  0
LINE
  8
001
 62
     3
 10
75.620521
 20
174.341681
 11
76.120521
 21
173.841681
  0
LINE
  8
001
 62
     3
 10
83.620521
 20
183.641681
 11
83.420521
 21
183.841681
  0
LINE
  8
001
 62
     3
 10
83.620521
 20
174.041681
 11
83.420521
 21
173.841681
  0
CIRCLE
  8
001
 62
     3
 10
141.963378
 20
178.841681
 40
5.0
  0
CIRCLE
  8
001
 10
141.963378
 20
178.841681
 40
4.1
  0
CIRCLE
  8
001
 10
141.963378
 20
178.841681
 40
2.6
  0
LINE
  8
001
  6
CENTER
 10
134.463378
 20
178.841681
 11
149.463378
 21
178.841681
  0
LINE
  8
001
  6
CENTER
 10
141.963378
 20
171.341681
 11
141.963378
 21
186.341681
  0
LINE
  8
001
 10
0.0
 20
297.0
 11
0.0
 21
0.0
  0
LINE
  8
001
 10
0.0
 20
0.0
 11
210.0
 21
0.0
  0
LINE
  8
001
 10
210.0
 20
297.0
 11
0.0
 21
297.0
  0
LINE
  8
001
  6
DASHED
 10
83.620521
 20
182.941681
 11
80.620521
 21
182.941681
  0
LINE
  8
001
  6
DASHED
 10
83.620521
 20
181.441681
 11
80.620521
 21
181.441681
  0
LINE
  8
001
  6
DASHED
 10
83.620521
 20
174.741681
 11
80.620521
 21
174.741681
  0
LINE
  8
001
  6
DASHED
 10
83.620521
 20
176.241681
 11
80.620521
 21
176.241681
  0
LINE
  8
001
 10
210.0
 20
0.0
 11
210.0
 21
297.0
  0
TEXT
  8
001
 10
90.745291
 20
135.7099
 40
3.6
  1
表面処理：　ニッケルメッキ　
 41
0.716667
  0
LINE
  8
001
 10
90.745291
 20
134.7099
 11
134.089291
 21
134.7099
  0
TEXT
  8
001
 10
160.329296
 20
16.123856
 40
3.6
  1
KM-0010H
 41
0.96
  0
ENDSEC
  0
EOF
