  0
SECTION
  2
HEADER
  9
$ACADVER
  1
AC1003
  9
$INSBASE
 10
0.0
 20
0.0
  9
$EXTMIN
 10
0.0
 20
0.0
  9
$EXTMAX
 10
297.0
 20
210.0
  9
$LIMMIN
 10
0.0
 20
0.0
  9
$LIMMAX
 10
12.0
 20
9.0
  9
$VIEWCTR
 10
6.591288
 20
4.579184
  9
$VIEWSIZE
 40
9.158369
  9
$SNAPMODE
 70
     0
  9
$SNAPUNIT
 10
1.0
 20
1.0
  9
$SNAPBASE
 10
0.0
 20
0.0
  9
$SNAPANG
 50
0.0
  9
$SNAPSTYLE
 70
     0
  9
$SNAPISOPAIR
 70
     0
  9
$GRIDMODE
 70
     0
  9
$GRIDUNIT
 10
0.0
 20
0.0
  9
$ORTHOMODE
 70
     0
  9
$REGENMODE
 70
     1
  9
$FILLMODE
 70
     1
  9
$QTEXTMODE
 70
     0
  9
$DRAGMODE
 70
     2
  9
$LTSCALE
 40
4.95
  9
$OSMODE
 70
     0
  9
$ATTMODE
 70
     1
  9
$TEXTSIZE
 40
3.2
  9
$TRACEWID
 40
0.05
  9
$TEXTSTYLE
  7
STANDARD
  9
$CLAYER
  8
0
  9
$CELTYPE
  6
CONTINUOUS
  9
$CECOLOR
 62
   256
  9
$DIMSCALE
 40
1.0
  9
$DIMASZ
 40
0.18
  9
$DIMEXO
 40
0.0625
  9
$DIMDLI
 40
0.38
  9
$DIMRND
 40
0.0
  9
$DIMDLE
 40
0.0
  9
$DIMEXE
 40
0.18
  9
$DIMTP
 40
0.0
  9
$DIMTM
 40
0.0
  9
$DIMTXT
 40
0.18
  9
$DIMCEN
 40
0.09
  9
$DIMTSZ
 40
0.0
  9
$DIMTOL
 70
     0
  9
$DIMLIM
 70
     0
  9
$DIMTIH
 70
     1
  9
$DIMTOH
 70
     1
  9
$DIMSE1
 70
     0
  9
$DIMSE2
 70
     0
  9
$DIMTAD
 70
     0
  9
$DIMZIN
 70
     0
  9
$DIMBLK
  1

  9
$DIMASO
 70
     1
  9
$DIMSHO
 70
     1
  9
$DIMPOST
  1

  9
$DIMAPOST
  1

  9
$DIMALT
 70
     0
  9
$DIMALTD
 70
     2
  9
$DIMALTF
 40
25.4
  9
$DIMLFAC
 40
1.0
  9
$LUNITS
 70
     2
  9
$LUPREC
 70
     4
  9
$AXISMODE
 70
     0
  9
$AXISUNIT
 10
0.0
 20
0.0
  9
$SKETCHINC
 40
0.1
  9
$FILLETRAD
 40
0.0
  9
$AUNITS
 70
     0
  9
$AUPREC
 70
     0
  9
$MENU
  1
acad
  9
$ELEVATION
 40
0.0
  9
$THICKNESS
 40
0.0
  9
$VIEWDIR
 10
0.0
 20
0.0
 30
1.0
  9
$LIMCHECK
 70
     0
  9
$BLIPMODE
 70
     1
  9
$CHAMFERA
 40
0.0
  9
$CHAMFERB
 40
0.0
  9
$FASTZOOM
 70
     1
  9
$SKPOLY
 70
     0
  9
$TDCREATE
 40
0.000000000
  9
$TDUPDATE
 40
0.000000000
  9
$TDINDWG
 40
0.0000000000
  9
$TDUSRTIMER
 40
0.0000000000
  9
$USRTIMER
 70
     1
  9
$ANGBASE
 50
0.0
  9
$ANGDIR
 70
     0
  9
$PDMODE
 70
     0
  9
$PDSIZE
 40
0.0
  9
$PLINEWID
 40
0.0
  9
$COORDS
 70
     1
  9
$USERI1
 70
     0
  9
$USERI2
 70
     0
  9
$USERI3
 70
     0
  9
$USERI4
 70
     0
  9
$USERI5
 70
     0
  9
$USERR1
 40
0.0
  9
$USERR2
 40
0.0
  9
$USERR3
 40
0.0
  9
$USERR4
 40
0.0
  9
$USERR5
 40
0.0
  0
ENDSEC
  0
SECTION
  2
TABLES
  0
TABLE
  2
LTYPE
 70
     5
  0
LTYPE
  2
CONTINUOUS
 70
    64
  3
Solid line
 72
    65
 73
     0
 40
0.0
  0
LTYPE
  2
DASHED
 70
    64
  3
DASHED
 72
    65
 73
     2
 40
0.75
 49
0.5
 49
-0.25
  0
LTYPE
  2
HIDDEN
 70
    64
  3
HIDDEN
 72
    65
 73
     2
 40
0.375
 49
0.25
 49
-0.125
  0
LTYPE
  2
CENTER
 70
    64
  3
CENTER
 72
    65
 73
     4
 40
2.0
 49
1.25
 49
-0.25
 49
0.25
 49
-0.25
  0
LTYPE
  2
PHANTOM
 70
    64
  3
PHANTOM
 72
    65
 73
     6
 40
2.5
 49
1.25
 49
-0.25
 49
0.25
 49
-0.25
 49
0.25
 49
-0.25
  0
ENDTAB
  0
TABLE
  2
LAYER
 70
     2
  0
LAYER
  2
0
 70
     0
 62
     7
  6
CONTINUOUS
  0
LAYER
  2
001
 70
     0
 62
     7
  6
CONTINUOUS
  0
ENDTAB
  0
TABLE
  2
STYLE
 70
     2
  0
STYLE
  2
STANDARD
 70
     0
 40
0.0
 41
1.0
 50
0.0
 71
     0
 42
0.2
  3
TXT
  4
BIGFONT
  0
STYLE
  2
TATEGAKI
 70
     4
 40
1.0
 41
1.0
 50
0.0
 71
     0
 42
0.2
  3
TXT
  4
BIGFONT
  0
ENDTAB
  0
TABLE
  2
VIEW
 70
     0
  0
ENDTAB
  0
ENDSEC
  0
SECTION
  2
BLOCKS
  0
BLOCK
  8
001
  2
DIM-1
 70
     0
 10
0.0
 20
0.0
  0
TEXT
  8
001
 10
226.348632
 20
137.568123
 40
3.6
  1
アルミ
 41
0.833333
  0
POLYLINE
  8
001
 66
     1
 70
     1
 40
0.5
 41
0.5
  0
VERTEX
  8
001
 10
216.05656
 20
122.608642
 42
1.0
  0
VERTEX
  8
001
 10
215.55656
 20
122.608642
 42
1.0
  0
SEQEND
  8
001
  0
POLYLINE
  8
001
 66
     1
  0
VERTEX
  8
001
 10
215.80656
 20
122.608642
  0
VERTEX
  8
001
 10
222.748632
 20
136.568123
  0
VERTEX
  8
001
 10
240.548632
 20
136.568123
  0
SEQEND
  8
001
  0
ENDBLK
  8
001
  0
BLOCK
  8
001
  2
DIM-2
 70
     0
 10
0.0
 20
0.0
  0
TEXT
  8
001
 10
175.063427
 20
84.691951
 40
3.6
  1
吸着面
 41
0.716667
  0
POLYLINE
  8
001
 66
     1
  0
VERTEX
  8
001
 10
160.966384
 20
102.949426
  0
VERTEX
  8
001
 10
160.403111
 20
104.94189
  0
VERTEX
  8
001
 10
161.887151
 20
103.498002
  0
SEQEND
  8
001
  0
POLYLINE
  8
001
 66
     1
  0
VERTEX
  8
001
 10
160.403111
 20
104.94189
  0
VERTEX
  8
001
 10
173.063427
 20
83.691951
  0
VERTEX
  8
001
 10
186.351427
 20
83.691951
  0
SEQEND
  8
001
  0
ENDBLK
  8
001
  0
BLOCK
  8
001
  2
DIM-3
 70
     0
 10
0.0
 20
0.0
  0
TEXT
  8
001
 10
225.659502
 20
93.146257
 40
3.6
  1
軟鋼
 41
0.716667
  0
POLYLINE
  8
001
 66
     1
 70
     1
 40
0.5
 41
0.5
  0
VERTEX
  8
001
 10
213.852279
 20
110.800783
 42
1.0
  0
VERTEX
  8
001
 10
213.352279
 20
110.800783
 42
1.0
  0
SEQEND
  8
001
  0
POLYLINE
  8
001
 66
     1
 70
     1
 40
0.5
 41
0.5
  0
VERTEX
  8
001
 10
215.312198
 20
101.392413
 42
1.0
  0
VERTEX
  8
001
 10
214.812198
 20
101.392413
 42
1.0
  0
SEQEND
  8
001
  0
POLYLINE
  8
001
 66
     1
  0
VERTEX
  8
001
 10
213.602279
 20
110.800783
  0
VERTEX
  8
001
 10
223.659502
 20
92.146257
  0
VERTEX
  8
001
 10
233.851502
 20
92.146257
  0
SEQEND
  8
001
  0
POLYLINE
  8
001
 66
     1
  0
VERTEX
  8
001
 10
215.062198
 20
101.392413
  0
VERTEX
  8
001
 10
223.659502
 20
92.146257
  0
SEQEND
  8
001
  0
ENDBLK
  8
001
  0
BLOCK
  8
001
  2
DIM-4
 70
     0
 10
0.0
 20
0.0
  0
TEXT
  8
001
 10
46.632278
 20
140.405375
 40
3.6
  1
Ｍ６×Ｐ１．０
 41
0.833333
  0
POLYLINE
  8
001
 66
     1
  0
VERTEX
  8
001
 10
86.779033
 20
118.567837
  0
VERTEX
  8
001
 10
87.234352
 20
116.547968
  0
VERTEX
  8
001
 10
85.8301
 20
118.069566
  0
SEQEND
  8
001
  0
POLYLINE
  8
001
 66
     1
  0
VERTEX
  8
001
 10
87.234352
 20
116.547968
  0
VERTEX
  8
001
 10
75.232276
 20
139.405375
  0
VERTEX
  8
001
 10
43.032279
 20
139.405375
  0
SEQEND
  8
001
  0
ENDBLK
  8
001
  0
BLOCK
  8
001
  2
*D4
 70
     1
 10
0.0
 20
0.0
  0
LINE
  8
001
 10
135.403111
 20
129.263248
 11
135.403111
 21
148.171789
  0
LINE
  8
001
 10
160.403111
 20
130.263248
 11
160.403111
 21
148.171789
  0
LINE
  8
001
 10
135.403111
 20
147.171789
 11
160.403111
 21
147.171789
  0
POLYLINE
  8
001
 66
     1
  0
VERTEX
  8
001
 10
137.403111
 20
146.635891
  0
VERTEX
  8
001
 10
135.403111
 20
147.171789
  0
VERTEX
  8
001
 10
137.403111
 20
147.707688
  0
SEQEND
  8
001
  0
POLYLINE
  8
001
 66
     1
  0
VERTEX
  8
001
 10
158.403111
 20
147.707688
  0
VERTEX
  8
001
 10
160.403111
 20
147.171789
  0
VERTEX
  8
001
 10
158.403111
 20
146.635891
  0
SEQEND
  8
001
  0
TEXT
  8
001
 10
144.403111
 20
148.171789
 40
3.6
  1
25
  0
POINT
  8
001
 10
135.403111
 20
129.263248
  0
POINT
  8
001
 10
160.403111
 20
130.263248
  0
POINT
  8
001
 10
160.403111
 20
147.171789
  0
ENDBLK
  8
001
  0
BLOCK
  8
001
  2
*D5
 70
     1
 10
0.0
 20
0.0
  0
LINE
  8
001
 10
161.203111
 20
99.263248
 11
178.005505
 21
99.263248
  0
LINE
  8
001
 10
161.203111
 20
129.263248
 11
178.005505
 21
129.263248
  0
LINE
  8
001
 10
177.005505
 20
99.263248
 11
177.005505
 21
129.263248
  0
POLYLINE
  8
001
 66
     1
  0
VERTEX
  8
001
 10
177.541404
 20
101.263248
  0
VERTEX
  8
001
 10
177.005505
 20
99.263248
  0
VERTEX
  8
001
 10
176.469607
 20
101.263248
  0
SEQEND
  8
001
  0
POLYLINE
  8
001
 66
     1
  0
VERTEX
  8
001
 10
176.469607
 20
127.263248
  0
VERTEX
  8
001
 10
177.005505
 20
129.263248
  0
VERTEX
  8
001
 10
177.541404
 20
127.263248
  0
SEQEND
  8
001
  0
TEXT
  8
001
 10
176.005505
 20
108.963248
 40
3.6
  1
%%c30
 50
90.000003
 41
1.058824
  0
POINT
  8
001
 10
161.203111
 20
99.263248
  0
POINT
  8
001
 10
161.203111
 20
129.263248
  0
POINT
  8
001
 10
177.005505
 20
129.263248
  0
ENDBLK
  8
001
  0
BLOCK
  8
001
  2
*D6
 70
     1
 10
0.0
 20
0.0
  0
LINE
  8
001
 10
143.403111
 20
110.263248
 11
143.403111
 21
85.210825
  0
LINE
  8
001
 10
135.403111
 20
99.263248
 11
135.403111
 21
85.210825
  0
LINE
  8
001
 10
143.403111
 20
86.210825
 11
135.403111
 21
86.210825
  0
POLYLINE
  8
001
 66
     1
  0
VERTEX
  8
001
 10
145.403111
 20
85.674927
  0
VERTEX
  8
001
 10
143.403111
 20
86.210825
  0
VERTEX
  8
001
 10
145.403111
 20
86.746724
  0
SEQEND
  8
001
  0
POLYLINE
  8
001
 66
     1
  0
VERTEX
  8
001
 10
133.403111
 20
86.746724
  0
VERTEX
  8
001
 10
135.403111
 20
86.210825
  0
VERTEX
  8
001
 10
133.403111
 20
85.674927
  0
SEQEND
  8
001
  0
TEXT
  8
001
 10
128.507111
 20
87.210825
 40
3.6
  1
8
 41
0.86
  0
POINT
  8
001
 10
143.403111
 20
110.263248
  0
POINT
  8
001
 10
135.403111
 20
99.263248
  0
POINT
  8
001
 10
135.403111
 20
86.210825
  0
LINE
  8
001
 10
143.403111
 20
86.210825
 11
146.403111
 21
86.210825
  0
LINE
  8
001
 10
135.403111
 20
86.210825
 11
127.507111
 21
86.210825
  0
ENDBLK
  8
001
  0
ENDSEC
  0
SECTION
  2
ENTITIES
  0
INSERT
  8
001
  6
BYBLOCK
 62
     0
  2
DIM-1
 10
0.0
 20
0.0
  0
INSERT
  8
001
  6
BYBLOCK
 62
     0
  2
DIM-2
 10
0.0
 20
0.0
  0
INSERT
  8
001
  6
BYBLOCK
 62
     0
  2
DIM-3
 10
0.0
 20
0.0
  0
INSERT
  8
001
  6
BYBLOCK
 62
     0
  2
DIM-4
 10
0.0
 20
0.0
  0
DIMENSION
  8
001
  2
*D4
 10
160.403111
 20
147.171789
 11
144.403111
 21
148.171789
 13
135.403111
 23
129.263248
 14
160.403111
 24
130.263248
  0
DIMENSION
  8
001
  2
*D5
 10
177.005505
 20
129.263248
 11
176.005505
 21
108.963248
 13
161.203111
 23
99.263248
 14
161.203111
 24
129.263248
 50
90.0
  0
DIMENSION
  8
001
  2
*D6
 10
135.403111
 20
86.210825
 11
128.507111
 21
87.210825
 13
143.403111
 23
110.263248
 14
135.403111
 24
99.263248
 50
180.0
  0
LINE
  8
001
  6
CENTER
 10
191.845256
 20
114.263248
 11
229.845256
 21
114.263248
  0
LINE
  8
001
  6
CENTER
 10
210.845256
 20
95.263248
 11
210.845256
 21
133.263248
  0
LINE
  8
001
  6
CENTER
 10
108.178589
 20
114.263248
 11
70.178589
 21
114.263248
  0
LINE
  8
001
  6
CENTER
 10
89.178589
 20
95.263248
 11
89.178589
 21
133.263248
  0
LINE
  8
001
 10
0.0
 20
210.0
 11
0.0
 21
0.0
  0
LINE
  8
001
 10
0.0
 20
0.0
 11
297.0
 21
0.0
  0
LINE
  8
001
 10
297.0
 20
0.0
 11
297.0
 21
210.0
  0
LINE
  8
001
 10
297.0
 20
210.0
 11
0.0
 21
210.0
  0
TEXT
  8
001
 10
116.999329
 20
63.301558
 40
3.6
  1
表面処理：　マルーン（赤茶チヂミ塗装）
 41
0.716667
  0
LINE
  8
001
 10
116.999329
 20
62.301558
 11
175.823328
 21
62.301558
  0
CIRCLE
  8
001
 10
89.178589
 20
114.263248
 40
2.4
  0
CIRCLE
  8
001
 10
89.178589
 20
114.263248
 40
3.0
  0
CIRCLE
  8
001
 62
     3
 10
89.178589
 20
114.263248
 40
15.0
  0
CIRCLE
  8
001
 10
89.178589
 20
114.263248
 40
14.0
  0
LINE
  8
001
 62
     3
 10
160.403111
 20
99.763248
 11
160.403111
 21
128.763248
  0
LINE
  8
001
 62
     3
 10
135.403111
 20
100.263248
 11
135.403111
 21
128.263248
  0
LINE
  8
001
 62
     3
 10
159.903111
 20
129.263248
 11
136.403111
 21
129.263248
  0
LINE
  8
001
 62
     3
 10
159.903111
 20
99.263248
 11
136.403111
 21
99.263248
  0
LINE
  8
001
 62
     3
 10
135.403111
 20
128.263248
 11
136.403111
 21
129.263248
  0
LINE
  8
001
 62
     3
 10
135.403111
 20
100.263248
 11
136.403111
 21
99.263248
  0
LINE
  8
001
 10
136.403111
 20
99.263248
 11
136.403111
 21
129.263248
  0
LINE
  8
001
  6
DASHED
 10
143.403111
 20
117.263248
 11
135.403111
 21
117.263248
  0
LINE
  8
001
  6
DASHED
 10
145.403111
 20
116.663248
 11
135.403111
 21
116.663248
  0
LINE
  8
001
  6
DASHED
 10
145.403111
 20
111.863248
 11
135.403111
 21
111.863248
  0
LINE
  8
001
  6
DASHED
 10
143.403111
 20
111.263248
 11
135.403111
 21
111.263248
  0
LINE
  8
001
  6
DASHED
 10
143.403111
 20
117.263248
 11
143.403111
 21
111.263248
  0
LINE
  8
001
  6
DASHED
 10
144.003111
 20
116.663248
 11
144.003111
 21
111.863248
  0
LINE
  8
001
  6
DASHED
 10
145.403111
 20
111.863248
 11
145.403111
 21
116.663248
  0
LINE
  8
001
  6
DASHED
 10
145.403111
 20
111.863248
 11
146.788751
 21
114.263248
  0
LINE
  8
001
  6
DASHED
 10
146.788751
 20
114.263248
 11
145.403111
 21
116.663248
  0
LINE
  8
001
  6
DASHED
 10
144.003111
 20
116.663248
 11
143.403111
 21
117.263248
  0
LINE
  8
001
  6
DASHED
 10
144.003111
 20
111.863248
 11
143.403111
 21
111.263248
  0
LINE
  8
001
 62
     3
 10
159.903111
 20
129.263248
 11
160.403111
 21
128.763248
  0
LINE
  8
001
 62
     3
 10
160.403111
 20
99.763248
 11
159.903111
 21
99.263248
  0
CIRCLE
  8
001
 62
     3
 10
210.845256
 20
114.263248
 40
15.0
  0
CIRCLE
  8
001
 10
210.845256
 20
114.263248
 40
12.4
  0
CIRCLE
  8
001
 10
210.845256
 20
114.263248
 40
7.0
  0
LINE
  8
001
  6
DASHED
 10
160.403111
 20
121.263248
 11
155.403111
 21
121.263248
  0
LINE
  8
001
  6
DASHED
 10
160.403111
 20
126.663248
 11
155.403111
 21
126.663248
  0
LINE
  8
001
  6
DASHED
 10
160.403111
 20
107.263248
 11
155.403111
 21
107.263248
  0
LINE
  8
001
  6
DASHED
 10
160.403111
 20
101.863248
 11
155.403111
 21
101.863248
  0
LINE
  8
001
  6
CENTER
 10
165.248047
 20
114.263248
 11
130.426208
 21
114.263248
  0
TEXT
  8
001
 10
254.307197
 20
13.106464
 40
3.6
  1
KM-03C
 41
0.884571
  0
ENDSEC
  0
EOF
