  0
SECTION
  2
HEADER
  9
$ACADVER
  1
AC1003
  9
$INSBASE
 10
0.0
 20
0.0
  9
$EXTMIN
 10
0.0
 20
0.0
  9
$EXTMAX
 10
297.0
 20
210.0
  9
$LIMMIN
 10
0.0
 20
0.0
  9
$LIMMAX
 10
12.0
 20
9.0
  9
$VIEWCTR
 10
6.591288
 20
4.579184
  9
$VIEWSIZE
 40
9.158369
  9
$SNAPMODE
 70
     0
  9
$SNAPUNIT
 10
1.0
 20
1.0
  9
$SNAPBASE
 10
0.0
 20
0.0
  9
$SNAPANG
 50
0.0
  9
$SNAPSTYLE
 70
     0
  9
$SNAPISOPAIR
 70
     0
  9
$GRIDMODE
 70
     0
  9
$GRIDUNIT
 10
0.0
 20
0.0
  9
$ORTHOMODE
 70
     0
  9
$REGENMODE
 70
     1
  9
$FILLMODE
 70
     1
  9
$QTEXTMODE
 70
     0
  9
$DRAGMODE
 70
     2
  9
$LTSCALE
 40
4.95
  9
$OSMODE
 70
     0
  9
$ATTMODE
 70
     1
  9
$TEXTSIZE
 40
3.2
  9
$TRACEWID
 40
0.05
  9
$TEXTSTYLE
  7
STANDARD
  9
$CLAYER
  8
0
  9
$CELTYPE
  6
CONTINUOUS
  9
$CECOLOR
 62
   256
  9
$DIMSCALE
 40
1.0
  9
$DIMASZ
 40
0.18
  9
$DIMEXO
 40
0.0625
  9
$DIMDLI
 40
0.38
  9
$DIMRND
 40
0.0
  9
$DIMDLE
 40
0.0
  9
$DIMEXE
 40
0.18
  9
$DIMTP
 40
0.0
  9
$DIMTM
 40
0.0
  9
$DIMTXT
 40
0.18
  9
$DIMCEN
 40
0.09
  9
$DIMTSZ
 40
0.0
  9
$DIMTOL
 70
     0
  9
$DIMLIM
 70
     0
  9
$DIMTIH
 70
     1
  9
$DIMTOH
 70
     1
  9
$DIMSE1
 70
     0
  9
$DIMSE2
 70
     0
  9
$DIMTAD
 70
     0
  9
$DIMZIN
 70
     0
  9
$DIMBLK
  1

  9
$DIMASO
 70
     1
  9
$DIMSHO
 70
     1
  9
$DIMPOST
  1

  9
$DIMAPOST
  1

  9
$DIMALT
 70
     0
  9
$DIMALTD
 70
     2
  9
$DIMALTF
 40
25.4
  9
$DIMLFAC
 40
1.0
  9
$LUNITS
 70
     2
  9
$LUPREC
 70
     4
  9
$AXISMODE
 70
     0
  9
$AXISUNIT
 10
0.0
 20
0.0
  9
$SKETCHINC
 40
0.1
  9
$FILLETRAD
 40
0.0
  9
$AUNITS
 70
     0
  9
$AUPREC
 70
     0
  9
$MENU
  1
acad
  9
$ELEVATION
 40
0.0
  9
$THICKNESS
 40
0.0
  9
$VIEWDIR
 10
0.0
 20
0.0
 30
1.0
  9
$LIMCHECK
 70
     0
  9
$BLIPMODE
 70
     1
  9
$CHAMFERA
 40
0.0
  9
$CHAMFERB
 40
0.0
  9
$FASTZOOM
 70
     1
  9
$SKPOLY
 70
     0
  9
$TDCREATE
 40
0.000000000
  9
$TDUPDATE
 40
0.000000000
  9
$TDINDWG
 40
0.0000000000
  9
$TDUSRTIMER
 40
0.0000000000
  9
$USRTIMER
 70
     1
  9
$ANGBASE
 50
0.0
  9
$ANGDIR
 70
     0
  9
$PDMODE
 70
     0
  9
$PDSIZE
 40
0.0
  9
$PLINEWID
 40
0.0
  9
$COORDS
 70
     1
  9
$USERI1
 70
     0
  9
$USERI2
 70
     0
  9
$USERI3
 70
     0
  9
$USERI4
 70
     0
  9
$USERI5
 70
     0
  9
$USERR1
 40
0.0
  9
$USERR2
 40
0.0
  9
$USERR3
 40
0.0
  9
$USERR4
 40
0.0
  9
$USERR5
 40
0.0
  0
ENDSEC
  0
SECTION
  2
TABLES
  0
TABLE
  2
LTYPE
 70
     5
  0
LTYPE
  2
CONTINUOUS
 70
    64
  3
Solid line
 72
    65
 73
     0
 40
0.0
  0
LTYPE
  2
DASHED
 70
    64
  3
DASHED
 72
    65
 73
     2
 40
0.75
 49
0.5
 49
-0.25
  0
LTYPE
  2
HIDDEN
 70
    64
  3
HIDDEN
 72
    65
 73
     2
 40
0.375
 49
0.25
 49
-0.125
  0
LTYPE
  2
CENTER
 70
    64
  3
CENTER
 72
    65
 73
     4
 40
2.0
 49
1.25
 49
-0.25
 49
0.25
 49
-0.25
  0
LTYPE
  2
PHANTOM
 70
    64
  3
PHANTOM
 72
    65
 73
     6
 40
2.5
 49
1.25
 49
-0.25
 49
0.25
 49
-0.25
 49
0.25
 49
-0.25
  0
ENDTAB
  0
TABLE
  2
LAYER
 70
     2
  0
LAYER
  2
0
 70
     0
 62
     7
  6
CONTINUOUS
  0
LAYER
  2
001
 70
     0
 62
     7
  6
CONTINUOUS
  0
ENDTAB
  0
TABLE
  2
STYLE
 70
     2
  0
STYLE
  2
STANDARD
 70
     0
 40
0.0
 41
1.0
 50
0.0
 71
     0
 42
0.2
  3
TXT
  4
BIGFONT
  0
STYLE
  2
TATEGAKI
 70
     4
 40
1.0
 41
1.0
 50
0.0
 71
     0
 42
0.2
  3
TXT
  4
BIGFONT
  0
ENDTAB
  0
TABLE
  2
VIEW
 70
     0
  0
ENDTAB
  0
ENDSEC
  0
SECTION
  2
BLOCKS
  0
BLOCK
  8
001
  2
DIM-1
 70
     0
 10
0.0
 20
0.0
  0
TEXT
  8
001
 10
244.935577
 20
139.617806
 40
3.6
  1
アルミ
 41
0.833333
  0
POLYLINE
  8
001
 66
     1
 70
     1
 40
0.5
 41
0.5
  0
VERTEX
  8
001
 10
234.643505
 20
124.658325
 42
1.0
  0
VERTEX
  8
001
 10
234.143505
 20
124.658325
 42
1.0
  0
SEQEND
  8
001
  0
POLYLINE
  8
001
 66
     1
  0
VERTEX
  8
001
 10
234.393505
 20
124.658325
  0
VERTEX
  8
001
 10
241.335577
 20
138.617806
  0
VERTEX
  8
001
 10
259.135577
 20
138.617806
  0
SEQEND
  8
001
  0
ENDBLK
  8
001
  0
BLOCK
  8
001
  2
DIM-2
 70
     0
 10
0.0
 20
0.0
  0
TEXT
  8
001
 10
174.528456
 20
79.667834
 40
3.6
  1
吸着面
 41
0.716667
  0
POLYLINE
  8
001
 66
     1
  0
VERTEX
  8
001
 10
160.431413
 20
97.925309
  0
VERTEX
  8
001
 10
159.868139
 20
99.917773
  0
VERTEX
  8
001
 10
161.35218
 20
98.473886
  0
SEQEND
  8
001
  0
POLYLINE
  8
001
 66
     1
  0
VERTEX
  8
001
 10
159.868139
 20
99.917773
  0
VERTEX
  8
001
 10
172.528456
 20
78.667834
  0
VERTEX
  8
001
 10
185.816455
 20
78.667834
  0
SEQEND
  8
001
  0
ENDBLK
  8
001
  0
BLOCK
  8
001
  2
*D2
 70
     1
 10
0.0
 20
0.0
  0
LINE
  8
001
 10
129.868139
 20
134.263248
 11
129.868139
 21
151.216138
  0
LINE
  8
001
 10
159.868139
 20
135.063248
 11
159.868139
 21
151.216138
  0
LINE
  8
001
 10
129.868139
 20
150.216138
 11
159.868139
 21
150.216138
  0
POLYLINE
  8
001
 66
     1
  0
VERTEX
  8
001
 10
131.868139
 20
149.68024
  0
VERTEX
  8
001
 10
129.868139
 20
150.216138
  0
VERTEX
  8
001
 10
131.868139
 20
150.752037
  0
SEQEND
  8
001
  0
POLYLINE
  8
001
 66
     1
  0
VERTEX
  8
001
 10
157.868139
 20
150.752037
  0
VERTEX
  8
001
 10
159.868139
 20
150.216138
  0
VERTEX
  8
001
 10
157.868139
 20
149.68024
  0
SEQEND
  8
001
  0
TEXT
  8
001
 10
141.368139
 20
151.216138
 40
3.6
  1
30
 41
1.090909
  0
POINT
  8
001
 10
129.868139
 20
134.263248
  0
POINT
  8
001
 10
159.868139
 20
135.063248
  0
POINT
  8
001
 10
159.868139
 20
150.216138
  0
ENDBLK
  8
001
  0
BLOCK
  8
001
  2
*D3
 70
     1
 10
0.0
 20
0.0
  0
LINE
  8
001
 10
160.668139
 20
94.263248
 11
175.598467
 21
94.263248
  0
LINE
  8
001
 10
160.668139
 20
134.263248
 11
175.598467
 21
134.263248
  0
LINE
  8
001
 10
174.598467
 20
94.263248
 11
174.598467
 21
134.263248
  0
POLYLINE
  8
001
 66
     1
  0
VERTEX
  8
001
 10
175.134366
 20
96.263248
  0
VERTEX
  8
001
 10
174.598467
 20
94.263248
  0
VERTEX
  8
001
 10
174.062569
 20
96.263248
  0
SEQEND
  8
001
  0
POLYLINE
  8
001
 66
     1
  0
VERTEX
  8
001
 10
174.062569
 20
132.263248
  0
VERTEX
  8
001
 10
174.598467
 20
134.263248
  0
VERTEX
  8
001
 10
175.134366
 20
132.263248
  0
SEQEND
  8
001
  0
TEXT
  8
001
 10
173.598467
 20
108.963248
 40
3.6
  1
%%c40
 50
90.000003
 41
1.058824
  0
POINT
  8
001
 10
160.668139
 20
94.263248
  0
POINT
  8
001
 10
160.668139
 20
134.263248
  0
POINT
  8
001
 10
174.598467
 20
134.263248
  0
ENDBLK
  8
001
  0
BLOCK
  8
001
  2
DIM-3
 70
     0
 10
0.0
 20
0.0
  0
TEXT
  8
001
 10
29.915328
 20
150.692548
 40
3.6
  1
Ｍ８×Ｐ１．２５
 41
0.833333
  0
POLYLINE
  8
001
 66
     1
  0
VERTEX
  8
001
 10
76.56789
 20
119.603978
  0
VERTEX
  8
001
 10
76.918061
 20
117.563251
  0
VERTEX
  8
001
 10
75.59444
 20
119.155486
  0
SEQEND
  8
001
  0
POLYLINE
  8
001
 66
     1
  0
VERTEX
  8
001
 10
76.918061
 20
117.563251
  0
VERTEX
  8
001
 10
62.115326
 20
149.692548
  0
VERTEX
  8
001
 10
26.315329
 20
149.692548
  0
SEQEND
  8
001
  0
ENDBLK
  8
001
  0
BLOCK
  8
001
  2
DIM-4
 70
     0
 10
0.0
 20
0.0
  0
TEXT
  8
001
 10
245.838809
 20
86.567108
 40
3.6
  1
軟鋼
 41
0.716667
  0
POLYLINE
  8
001
 66
     1
 70
     1
 40
0.5
 41
0.5
  0
VERTEX
  8
001
 10
231.072768
 20
109.434328
 42
1.0
  0
VERTEX
  8
001
 10
230.572768
 20
109.434328
 42
1.0
  0
SEQEND
  8
001
  0
POLYLINE
  8
001
 66
     1
 70
     1
 40
0.5
 41
0.5
  0
VERTEX
  8
001
 10
232.815553
 20
97.01117
 42
1.0
  0
VERTEX
  8
001
 10
232.315553
 20
97.01117
 42
1.0
  0
SEQEND
  8
001
  0
POLYLINE
  8
001
 66
     1
  0
VERTEX
  8
001
 10
230.822768
 20
109.434328
  0
VERTEX
  8
001
 10
243.838809
 20
85.567108
  0
VERTEX
  8
001
 10
254.030809
 20
85.567108
  0
SEQEND
  8
001
  0
POLYLINE
  8
001
 66
     1
  0
VERTEX
  8
001
 10
232.565553
 20
97.01117
  0
VERTEX
  8
001
 10
243.838809
 20
85.567108
  0
SEQEND
  8
001
  0
ENDBLK
  8
001
  0
BLOCK
  8
001
  2
*D6
 70
     1
 10
0.0
 20
0.0
  0
LINE
  8
001
 10
141.868139
 20
109.263248
 11
141.868139
 21
79.391322
  0
LINE
  8
001
 10
129.868139
 20
94.263248
 11
129.868139
 21
79.391322
  0
LINE
  8
001
 10
141.868139
 20
80.391322
 11
129.868139
 21
80.391322
  0
POLYLINE
  8
001
 66
     1
  0
VERTEX
  8
001
 10
139.868139
 20
80.92722
  0
VERTEX
  8
001
 10
141.868139
 20
80.391322
  0
VERTEX
  8
001
 10
139.868139
 20
79.855423
  0
SEQEND
  8
001
  0
POLYLINE
  8
001
 66
     1
  0
VERTEX
  8
001
 10
131.868139
 20
79.855423
  0
VERTEX
  8
001
 10
129.868139
 20
80.391322
  0
VERTEX
  8
001
 10
131.868139
 20
80.92722
  0
SEQEND
  8
001
  0
TEXT
  8
001
 10
132.77214
 20
81.391322
 40
3.6
  1
12
 41
1.032
  0
POINT
  8
001
 10
141.868139
 20
109.263248
  0
POINT
  8
001
 10
129.868139
 20
94.263248
  0
POINT
  8
001
 10
129.868139
 20
80.391322
  0
ENDBLK
  8
001
  0
ENDSEC
  0
SECTION
  2
ENTITIES
  0
INSERT
  8
001
  6
BYBLOCK
 62
     0
  2
DIM-1
 10
0.0
 20
0.0
  0
INSERT
  8
001
  6
BYBLOCK
 62
     0
  2
DIM-2
 10
0.0
 20
0.0
  0
DIMENSION
  8
001
  2
*D2
 10
159.868139
 20
150.216138
 11
141.368139
 21
151.216138
 13
129.868139
 23
134.263248
 14
159.868139
 24
135.063248
 50
360.0
  0
DIMENSION
  8
001
  2
*D3
 10
174.598467
 20
134.263248
 11
173.598467
 21
108.963248
 13
160.668139
 23
94.263248
 14
160.668139
 24
134.263248
 50
90.0
  0
INSERT
  8
001
  6
BYBLOCK
 62
     0
  2
DIM-3
 10
0.0
 20
0.0
  0
INSERT
  8
001
  6
BYBLOCK
 62
     0
  2
DIM-4
 10
0.0
 20
0.0
  0
DIMENSION
  8
001
  2
*D6
 10
129.868139
 20
80.391322
 11
132.77214
 21
81.391322
 13
141.868139
 23
109.263248
 14
129.868139
 24
94.263248
 50
180.0
  0
LINE
  8
001
 10
0.0
 20
210.0
 11
0.0
 21
0.0
  0
LINE
  8
001
 10
0.0
 20
0.0
 11
297.0
 21
0.0
  0
LINE
  8
001
 10
297.0
 20
0.0
 11
297.0
 21
210.0
  0
LINE
  8
001
 10
297.0
 20
210.0
 11
0.0
 21
210.0
  0
TEXT
  8
001
 10
116.999329
 20
63.301558
 40
3.6
  1
表面処理：　マルーン（赤茶チヂミ塗装）
 41
0.716667
  0
LINE
  8
001
 10
116.999329
 20
62.301558
 11
175.823328
 21
62.301558
  0
CIRCLE
  8
001
 62
     3
 10
79.178589
 20
114.263248
 40
20.0
  0
LINE
  8
001
  6
CENTER
 10
51.678589
 20
114.263248
 11
106.678589
 21
114.263248
  0
LINE
  8
001
  6
CENTER
 10
79.178589
 20
86.763248
 11
79.178589
 21
141.763248
  0
CIRCLE
  8
001
 10
79.178589
 20
114.263248
 40
3.3
  0
CIRCLE
  8
001
 10
79.178589
 20
114.263248
 40
4.0
  0
CIRCLE
  8
001
 10
79.178589
 20
114.263248
 40
19.0
  0
LINE
  8
001
  6
CENTER
 10
164.29939
 20
114.263248
 11
122.782425
 21
114.263248
  0
LINE
  8
001
 62
     3
 10
159.868139
 20
94.763248
 11
159.868139
 21
133.763248
  0
LINE
  8
001
 62
     3
 10
129.868139
 20
95.263248
 11
129.868139
 21
133.263248
  0
LINE
  8
001
 62
     3
 10
159.368139
 20
134.263248
 11
130.868139
 21
134.263248
  0
LINE
  8
001
 62
     3
 10
159.368139
 20
94.263248
 11
130.868139
 21
94.263248
  0
LINE
  8
001
 62
     3
 10
129.868139
 20
133.263248
 11
130.868139
 21
134.263248
  0
LINE
  8
001
 62
     3
 10
129.868139
 20
95.263248
 11
130.868139
 21
94.263248
  0
LINE
  8
001
 10
130.868139
 20
94.263248
 11
130.868139
 21
134.263248
  0
LINE
  8
001
  6
DASHED
 10
141.868139
 20
118.263248
 11
129.868139
 21
118.263248
  0
LINE
  8
001
  6
DASHED
 10
144.368139
 20
117.563248
 11
129.868139
 21
117.563248
  0
LINE
  8
001
  6
DASHED
 10
144.368139
 20
110.963248
 11
129.868139
 21
110.963248
  0
LINE
  8
001
  6
DASHED
 10
141.868139
 20
110.263248
 11
129.868139
 21
110.263248
  0
LINE
  8
001
  6
DASHED
 10
141.868139
 20
118.263248
 11
141.868139
 21
110.263248
  0
LINE
  8
001
  6
DASHED
 10
142.568139
 20
117.563248
 11
142.568139
 21
110.963248
  0
LINE
  8
001
  6
DASHED
 10
144.368139
 20
110.963248
 11
144.368139
 21
117.563248
  0
LINE
  8
001
  6
DASHED
 10
146.273395
 20
114.263248
 11
144.368139
 21
117.563248
  0
LINE
  8
001
  6
DASHED
 10
144.368139
 20
110.963248
 11
146.273395
 21
114.263248
  0
LINE
  8
001
  6
DASHED
 10
142.568139
 20
117.563248
 11
141.868139
 21
118.263248
  0
LINE
  8
001
  6
DASHED
 10
142.568139
 20
110.963248
 11
141.868139
 21
110.263248
  0
LINE
  8
001
 62
     3
 10
159.368139
 20
134.263248
 11
159.868139
 21
133.763248
  0
LINE
  8
001
 62
     3
 10
159.868139
 20
94.763248
 11
159.368139
 21
94.263248
  0
CIRCLE
  8
001
 62
     3
 10
225.845256
 20
114.263248
 40
20.0
  0
CIRCLE
  8
001
 10
225.845256
 20
114.263248
 40
10.5
  0
CIRCLE
  8
001
 10
225.845256
 20
114.263248
 40
17.0
  0
LINE
  8
001
  6
CENTER
 10
198.345256
 20
114.263248
 11
253.345256
 21
114.263248
  0
LINE
  8
001
  6
CENTER
 10
225.845256
 20
86.763248
 11
225.845256
 21
141.763248
  0
LINE
  8
001
  6
DASHED
 10
159.868139
 20
124.763248
 11
154.868139
 21
124.763248
  0
LINE
  8
001
  6
DASHED
 10
159.868139
 20
131.263248
 11
154.868139
 21
131.263248
  0
LINE
  8
001
  6
DASHED
 10
159.868139
 20
103.763248
 11
154.868139
 21
103.763248
  0
LINE
  8
001
  6
DASHED
 10
159.868139
 20
97.263248
 11
154.868139
 21
97.263248
  0
TEXT
  8
001
 10
254.307197
 20
13.106464
 40
3.6
  1
KM-04C
 41
0.884571
  0
ENDSEC
  0
EOF
