  0
SECTION
  2
HEADER
  9
$ACADVER
  1
AC1003
  9
$INSBASE
 10
0.0
 20
0.0
  9
$EXTMIN
 10
0.0
 20
0.0
  9
$EXTMAX
 10
297.0
 20
210.0
  9
$LIMMIN
 10
0.0
 20
0.0
  9
$LIMMAX
 10
12.0
 20
9.0
  9
$VIEWCTR
 10
6.591288
 20
4.579184
  9
$VIEWSIZE
 40
9.158369
  9
$SNAPMODE
 70
     0
  9
$SNAPUNIT
 10
1.0
 20
1.0
  9
$SNAPBASE
 10
0.0
 20
0.0
  9
$SNAPANG
 50
0.0
  9
$SNAPSTYLE
 70
     0
  9
$SNAPISOPAIR
 70
     0
  9
$GRIDMODE
 70
     0
  9
$GRIDUNIT
 10
0.0
 20
0.0
  9
$ORTHOMODE
 70
     0
  9
$REGENMODE
 70
     1
  9
$FILLMODE
 70
     1
  9
$QTEXTMODE
 70
     0
  9
$DRAGMODE
 70
     2
  9
$LTSCALE
 40
4.95
  9
$OSMODE
 70
     0
  9
$ATTMODE
 70
     1
  9
$TEXTSIZE
 40
3.2
  9
$TRACEWID
 40
0.05
  9
$TEXTSTYLE
  7
STANDARD
  9
$CLAYER
  8
0
  9
$CELTYPE
  6
CONTINUOUS
  9
$CECOLOR
 62
   256
  9
$DIMSCALE
 40
1.0
  9
$DIMASZ
 40
0.18
  9
$DIMEXO
 40
0.0625
  9
$DIMDLI
 40
0.38
  9
$DIMRND
 40
0.0
  9
$DIMDLE
 40
0.0
  9
$DIMEXE
 40
0.18
  9
$DIMTP
 40
0.0
  9
$DIMTM
 40
0.0
  9
$DIMTXT
 40
0.18
  9
$DIMCEN
 40
0.09
  9
$DIMTSZ
 40
0.0
  9
$DIMTOL
 70
     0
  9
$DIMLIM
 70
     0
  9
$DIMTIH
 70
     1
  9
$DIMTOH
 70
     1
  9
$DIMSE1
 70
     0
  9
$DIMSE2
 70
     0
  9
$DIMTAD
 70
     0
  9
$DIMZIN
 70
     0
  9
$DIMBLK
  1

  9
$DIMASO
 70
     1
  9
$DIMSHO
 70
     1
  9
$DIMPOST
  1

  9
$DIMAPOST
  1

  9
$DIMALT
 70
     0
  9
$DIMALTD
 70
     2
  9
$DIMALTF
 40
25.4
  9
$DIMLFAC
 40
1.0
  9
$LUNITS
 70
     2
  9
$LUPREC
 70
     4
  9
$AXISMODE
 70
     0
  9
$AXISUNIT
 10
0.0
 20
0.0
  9
$SKETCHINC
 40
0.1
  9
$FILLETRAD
 40
0.0
  9
$AUNITS
 70
     0
  9
$AUPREC
 70
     0
  9
$MENU
  1
acad
  9
$ELEVATION
 40
0.0
  9
$THICKNESS
 40
0.0
  9
$VIEWDIR
 10
0.0
 20
0.0
 30
1.0
  9
$LIMCHECK
 70
     0
  9
$BLIPMODE
 70
     1
  9
$CHAMFERA
 40
0.0
  9
$CHAMFERB
 40
0.0
  9
$FASTZOOM
 70
     1
  9
$SKPOLY
 70
     0
  9
$TDCREATE
 40
0.000000000
  9
$TDUPDATE
 40
0.000000000
  9
$TDINDWG
 40
0.0000000000
  9
$TDUSRTIMER
 40
0.0000000000
  9
$USRTIMER
 70
     1
  9
$ANGBASE
 50
0.0
  9
$ANGDIR
 70
     0
  9
$PDMODE
 70
     0
  9
$PDSIZE
 40
0.0
  9
$PLINEWID
 40
0.0
  9
$COORDS
 70
     1
  9
$USERI1
 70
     0
  9
$USERI2
 70
     0
  9
$USERI3
 70
     0
  9
$USERI4
 70
     0
  9
$USERI5
 70
     0
  9
$USERR1
 40
0.0
  9
$USERR2
 40
0.0
  9
$USERR3
 40
0.0
  9
$USERR4
 40
0.0
  9
$USERR5
 40
0.0
  0
ENDSEC
  0
SECTION
  2
TABLES
  0
TABLE
  2
LTYPE
 70
     5
  0
LTYPE
  2
CONTINUOUS
 70
    64
  3
Solid line
 72
    65
 73
     0
 40
0.0
  0
LTYPE
  2
DASHED
 70
    64
  3
DASHED
 72
    65
 73
     2
 40
0.75
 49
0.5
 49
-0.25
  0
LTYPE
  2
HIDDEN
 70
    64
  3
HIDDEN
 72
    65
 73
     2
 40
0.375
 49
0.25
 49
-0.125
  0
LTYPE
  2
CENTER
 70
    64
  3
CENTER
 72
    65
 73
     4
 40
2.0
 49
1.25
 49
-0.25
 49
0.25
 49
-0.25
  0
LTYPE
  2
PHANTOM
 70
    64
  3
PHANTOM
 72
    65
 73
     6
 40
2.5
 49
1.25
 49
-0.25
 49
0.25
 49
-0.25
 49
0.25
 49
-0.25
  0
ENDTAB
  0
TABLE
  2
LAYER
 70
     2
  0
LAYER
  2
0
 70
     0
 62
     7
  6
CONTINUOUS
  0
LAYER
  2
001
 70
     0
 62
     7
  6
CONTINUOUS
  0
ENDTAB
  0
TABLE
  2
STYLE
 70
     2
  0
STYLE
  2
STANDARD
 70
     0
 40
0.0
 41
1.0
 50
0.0
 71
     0
 42
0.2
  3
TXT
  4
BIGFONT
  0
STYLE
  2
TATEGAKI
 70
     4
 40
1.0
 41
1.0
 50
0.0
 71
     0
 42
0.2
  3
TXT
  4
BIGFONT
  0
ENDTAB
  0
TABLE
  2
VIEW
 70
     0
  0
ENDTAB
  0
ENDSEC
  0
SECTION
  2
BLOCKS
  0
BLOCK
  8
001
  2
DIM-1
 70
     0
 10
0.0
 20
0.0
  0
TEXT
  8
001
 10
251.582581
 20
141.951061
 40
3.6
  1
アルミ
 41
0.833333
  0
POLYLINE
  8
001
 66
     1
 70
     1
 40
0.5
 41
0.5
  0
VERTEX
  8
001
 10
241.290509
 20
126.99158
 42
1.0
  0
VERTEX
  8
001
 10
240.790509
 20
126.99158
 42
1.0
  0
SEQEND
  8
001
  0
POLYLINE
  8
001
 66
     1
  0
VERTEX
  8
001
 10
241.040509
 20
126.99158
  0
VERTEX
  8
001
 10
247.982581
 20
140.951061
  0
VERTEX
  8
001
 10
265.78258
 20
140.951061
  0
SEQEND
  8
001
  0
ENDBLK
  8
001
  0
BLOCK
  8
001
  2
DIM-2
 70
     0
 10
0.0
 20
0.0
  0
TEXT
  8
001
 10
173.458513
 20
75.079899
 40
3.6
  1
吸着面
 41
0.716667
  0
POLYLINE
  8
001
 66
     1
  0
VERTEX
  8
001
 10
159.36147
 20
93.337374
  0
VERTEX
  8
001
 10
158.798197
 20
95.329838
  0
VERTEX
  8
001
 10
160.282237
 20
93.88595
  0
SEQEND
  8
001
  0
POLYLINE
  8
001
 66
     1
  0
VERTEX
  8
001
 10
158.798197
 20
95.329838
  0
VERTEX
  8
001
 10
171.458513
 20
74.079899
  0
VERTEX
  8
001
 10
184.746513
 20
74.079899
  0
SEQEND
  8
001
  0
ENDBLK
  8
001
  0
BLOCK
  8
001
  2
DIM-3
 70
     0
 10
0.0
 20
0.0
  0
TEXT
  8
001
 10
249.906514
 20
81.672561
 40
3.6
  1
軟鋼
 41
0.716667
  0
POLYLINE
  8
001
 66
     1
 70
     1
 40
0.5
 41
0.5
  0
VERTEX
  8
001
 10
235.140474
 20
104.539781
 42
1.0
  0
VERTEX
  8
001
 10
234.640474
 20
104.539781
 42
1.0
  0
SEQEND
  8
001
  0
POLYLINE
  8
001
 66
     1
 70
     1
 40
0.5
 41
0.5
  0
VERTEX
  8
001
 10
236.883259
 20
92.116623
 42
1.0
  0
VERTEX
  8
001
 10
236.383259
 20
92.116623
 42
1.0
  0
SEQEND
  8
001
  0
POLYLINE
  8
001
 66
     1
  0
VERTEX
  8
001
 10
234.890474
 20
104.539781
  0
VERTEX
  8
001
 10
247.906514
 20
80.672561
  0
VERTEX
  8
001
 10
258.098514
 20
80.672561
  0
SEQEND
  8
001
  0
POLYLINE
  8
001
 66
     1
  0
VERTEX
  8
001
 10
236.633259
 20
92.116623
  0
VERTEX
  8
001
 10
247.906514
 20
80.672561
  0
SEQEND
  8
001
  0
ENDBLK
  8
001
  0
BLOCK
  8
001
  2
*D3
 70
     1
 10
0.0
 20
0.0
  0
LINE
  8
001
 10
159.598197
 20
89.263248
 11
177.465597
 21
89.263248
  0
LINE
  8
001
 10
159.598197
 20
139.263248
 11
177.465597
 21
139.263248
  0
LINE
  8
001
 10
176.465597
 20
89.263248
 11
176.465597
 21
139.263248
  0
POLYLINE
  8
001
 66
     1
  0
VERTEX
  8
001
 10
177.001495
 20
91.263248
  0
VERTEX
  8
001
 10
176.465597
 20
89.263248
  0
VERTEX
  8
001
 10
175.929699
 20
91.263248
  0
SEQEND
  8
001
  0
POLYLINE
  8
001
 66
     1
  0
VERTEX
  8
001
 10
175.929699
 20
137.263248
  0
VERTEX
  8
001
 10
176.465597
 20
139.263248
  0
VERTEX
  8
001
 10
177.001495
 20
137.263248
  0
SEQEND
  8
001
  0
TEXT
  8
001
 10
175.465597
 20
108.963248
 40
3.6
  1
%%c50
 50
90.000003
 41
1.058824
  0
POINT
  8
001
 10
159.598197
 20
89.263248
  0
POINT
  8
001
 10
159.598197
 20
139.263248
  0
POINT
  8
001
 10
176.465597
 20
139.263248
  0
ENDBLK
  8
001
  0
BLOCK
  8
001
  2
*D4
 70
     1
 10
0.0
 20
0.0
  0
LINE
  8
001
 10
118.798197
 20
139.263248
 11
118.798197
 21
157.917631
  0
LINE
  8
001
 10
158.798197
 20
140.063248
 11
158.798197
 21
157.917631
  0
LINE
  8
001
 10
118.798197
 20
156.917631
 11
158.798197
 21
156.917631
  0
POLYLINE
  8
001
 66
     1
  0
VERTEX
  8
001
 10
120.798197
 20
156.381733
  0
VERTEX
  8
001
 10
118.798197
 20
156.917631
  0
VERTEX
  8
001
 10
120.798197
 20
157.453529
  0
SEQEND
  8
001
  0
POLYLINE
  8
001
 66
     1
  0
VERTEX
  8
001
 10
156.798197
 20
157.453529
  0
VERTEX
  8
001
 10
158.798197
 20
156.917631
  0
VERTEX
  8
001
 10
156.798197
 20
156.381733
  0
SEQEND
  8
001
  0
TEXT
  8
001
 10
135.298197
 20
157.917631
 40
3.6
  1
40
 41
1.090909
  0
POINT
  8
001
 10
118.798197
 20
139.263248
  0
POINT
  8
001
 10
158.798197
 20
140.063248
  0
POINT
  8
001
 10
158.798197
 20
156.917631
  0
ENDBLK
  8
001
  0
BLOCK
  8
001
  2
*D5
 70
     1
 10
0.0
 20
0.0
  0
LINE
  8
001
 10
130.798197
 20
109.263248
 11
130.798197
 21
73.901325
  0
LINE
  8
001
 10
118.798197
 20
89.263248
 11
118.798197
 21
73.901325
  0
LINE
  8
001
 10
130.798197
 20
74.901325
 11
118.798197
 21
74.901325
  0
POLYLINE
  8
001
 66
     1
  0
VERTEX
  8
001
 10
128.798197
 20
75.437223
  0
VERTEX
  8
001
 10
130.798197
 20
74.901325
  0
VERTEX
  8
001
 10
128.798197
 20
74.365426
  0
SEQEND
  8
001
  0
POLYLINE
  8
001
 66
     1
  0
VERTEX
  8
001
 10
120.798197
 20
74.365426
  0
VERTEX
  8
001
 10
118.798197
 20
74.901325
  0
VERTEX
  8
001
 10
120.798197
 20
75.437223
  0
SEQEND
  8
001
  0
TEXT
  8
001
 10
121.702197
 20
75.901325
 40
3.6
  1
12
 41
1.032
  0
POINT
  8
001
 10
130.798197
 20
109.263248
  0
POINT
  8
001
 10
118.798197
 20
89.263248
  0
POINT
  8
001
 10
118.798197
 20
74.901325
  0
ENDBLK
  8
001
  0
BLOCK
  8
001
  2
DIM-4
 70
     0
 10
0.0
 20
0.0
  0
TEXT
  8
001
 10
13.288007
 20
155.972922
 40
3.6
  1
Ｍ８×Ｐ１．２５
 41
0.833333
  0
POLYLINE
  8
001
 66
     1
  0
VERTEX
  8
001
 10
61.397185
 20
119.449375
  0
VERTEX
  8
001
 10
61.69738
 20
117.4007
  0
VERTEX
  8
001
 10
60.413066
 20
119.024807
  0
SEQEND
  8
001
  0
POLYLINE
  8
001
 66
     1
  0
VERTEX
  8
001
 10
61.69738
 20
117.4007
  0
VERTEX
  8
001
 10
45.488005
 20
154.972922
  0
VERTEX
  8
001
 10
9.688008
 20
154.972922
  0
SEQEND
  8
001
  0
ENDBLK
  8
001
  0
ENDSEC
  0
SECTION
  2
ENTITIES
  0
INSERT
  8
001
  6
BYBLOCK
 62
     0
  2
DIM-1
 10
0.0
 20
0.0
  0
INSERT
  8
001
  6
BYBLOCK
 62
     0
  2
DIM-2
 10
0.0
 20
0.0
  0
INSERT
  8
001
  6
BYBLOCK
 62
     0
  2
DIM-3
 10
0.0
 20
0.0
  0
DIMENSION
  8
001
  2
*D3
 10
176.465597
 20
139.263248
 11
175.465597
 21
108.963248
 13
159.598197
 23
89.263248
 14
159.598197
 24
139.263248
 50
90.0
  0
DIMENSION
  8
001
  2
*D4
 10
158.798197
 20
156.917631
 11
135.298197
 21
157.917631
 13
118.798197
 23
139.263248
 14
158.798197
 24
140.063248
  0
DIMENSION
  8
001
  2
*D5
 10
118.798197
 20
74.901325
 11
121.702197
 21
75.901325
 13
130.798197
 23
109.263248
 14
118.798197
 24
89.263248
 50
180.0
  0
INSERT
  8
001
  6
BYBLOCK
 62
     0
  2
DIM-4
 10
0.0
 20
0.0
  0
LINE
  8
001
 10
0.0
 20
210.0
 11
0.0
 21
0.0
  0
LINE
  8
001
 10
0.0
 20
0.0
 11
297.0
 21
0.0
  0
LINE
  8
001
 10
297.0
 20
0.0
 11
297.0
 21
210.0
  0
LINE
  8
001
 10
297.0
 20
210.0
 11
0.0
 21
210.0
  0
TEXT
  8
001
 10
115.818714
 20
49.607738
 40
3.6
  1
表面処理：　マルーン（赤茶チヂミ塗装）
 41
0.716667
  0
LINE
  8
001
 10
115.818714
 20
48.607738
 11
174.642713
 21
48.607738
  0
CIRCLE
  8
001
 62
     3
 10
230.845256
 20
114.263248
 40
25.0
  0
LINE
  8
001
  6
CENTER
 10
200.845256
 20
114.263248
 11
260.845256
 21
114.263248
  0
LINE
  8
001
  6
CENTER
 10
230.845256
 20
84.263248
 11
230.845256
 21
144.263248
  0
CIRCLE
  8
001
 10
230.845256
 20
114.263248
 40
21.0
  0
CIRCLE
  8
001
 10
230.845256
 20
114.263248
 40
13.0
  0
LINE
  8
001
  6
CENTER
 10
165.804057
 20
114.263248
 11
111.712483
 21
114.263248
  0
LINE
  8
001
 62
     3
 10
158.798197
 20
89.763248
 11
158.798197
 21
138.763248
  0
LINE
  8
001
 62
     3
 10
118.798197
 20
90.263248
 11
118.798197
 21
138.263248
  0
LINE
  8
001
 62
     3
 10
158.298197
 20
139.263248
 11
119.798197
 21
139.263248
  0
LINE
  8
001
 62
     3
 10
158.298197
 20
89.263248
 11
119.798197
 21
89.263248
  0
LINE
  8
001
 62
     3
 10
118.798197
 20
138.263248
 11
119.798197
 21
139.263248
  0
LINE
  8
001
 62
     3
 10
118.798197
 20
90.263248
 11
119.798197
 21
89.263248
  0
LINE
  8
001
 10
119.798197
 20
89.263248
 11
119.798197
 21
139.263248
  0
LINE
  8
001
  6
DASHED
 10
130.798197
 20
118.263248
 11
118.798197
 21
118.263248
  0
LINE
  8
001
  6
DASHED
 10
133.298197
 20
117.563248
 11
118.798197
 21
117.563248
  0
LINE
  8
001
  6
DASHED
 10
133.298197
 20
110.963248
 11
118.798197
 21
110.963248
  0
LINE
  8
001
  6
DASHED
 10
130.798197
 20
110.263248
 11
118.798197
 21
110.263248
  0
LINE
  8
001
  6
DASHED
 10
130.798197
 20
118.263248
 11
130.798197
 21
110.263248
  0
LINE
  8
001
  6
DASHED
 10
131.498197
 20
117.563248
 11
131.498197
 21
110.963248
  0
LINE
  8
001
  6
DASHED
 10
133.298197
 20
110.963248
 11
133.298197
 21
117.563248
  0
LINE
  8
001
  6
DASHED
 10
135.203453
 20
114.263248
 11
133.298197
 21
117.563248
  0
LINE
  8
001
  6
DASHED
 10
133.298197
 20
110.963248
 11
135.203453
 21
114.263248
  0
LINE
  8
001
  6
DASHED
 10
131.498197
 20
117.563248
 11
130.798197
 21
118.263248
  0
LINE
  8
001
  6
DASHED
 10
131.498197
 20
110.963248
 11
130.798197
 21
110.263248
  0
LINE
  8
001
 62
     3
 10
158.298197
 20
139.263248
 11
158.798197
 21
138.763248
  0
LINE
  8
001
 62
     3
 10
158.798197
 20
89.763248
 11
158.298197
 21
89.263248
  0
CIRCLE
  8
001
 10
64.178589
 20
114.263248
 40
3.3
  0
CIRCLE
  8
001
 10
64.178589
 20
114.263248
 40
4.0
  0
CIRCLE
  8
001
 62
     3
 10
64.178589
 20
114.263248
 40
25.0
  0
CIRCLE
  8
001
 10
64.178589
 20
114.263248
 40
24.0
  0
LINE
  8
001
  6
CENTER
 10
34.178589
 20
114.263248
 11
94.178589
 21
114.263248
  0
LINE
  8
001
  6
CENTER
 10
64.178589
 20
84.263248
 11
64.178589
 21
144.263248
  0
LINE
  8
001
  6
DASHED
 10
158.798197
 20
135.263248
 11
153.798197
 21
135.263248
  0
LINE
  8
001
  6
DASHED
 10
158.798197
 20
127.263248
 11
153.798197
 21
127.263248
  0
LINE
  8
001
  6
DASHED
 10
158.798197
 20
93.263248
 11
153.798197
 21
93.263248
  0
LINE
  8
001
  6
DASHED
 10
158.798197
 20
101.263248
 11
153.798197
 21
101.263248
  0
TEXT
  8
001
 10
254.307197
 20
13.106464
 40
3.6
  1
KM-05C
 41
0.884571
  0
ENDSEC
  0
EOF
