  0
SECTION
  2
HEADER
  9
$ACADVER
  1
AC1003
  9
$INSBASE
 10
0.0
 20
0.0
  9
$EXTMIN
 10
0.0
 20
0.0
  9
$EXTMAX
 10
210.0
 20
297.0
  9
$LIMMIN
 10
0.0
 20
0.0
  9
$LIMMAX
 10
12.0
 20
9.0
  9
$VIEWCTR
 10
6.591288
 20
4.579184
  9
$VIEWSIZE
 40
9.158369
  9
$SNAPMODE
 70
     0
  9
$SNAPUNIT
 10
1.0
 20
1.0
  9
$SNAPBASE
 10
0.0
 20
0.0
  9
$SNAPANG
 50
0.0
  9
$SNAPSTYLE
 70
     0
  9
$SNAPISOPAIR
 70
     0
  9
$GRIDMODE
 70
     0
  9
$GRIDUNIT
 10
0.0
 20
0.0
  9
$ORTHOMODE
 70
     0
  9
$REGENMODE
 70
     1
  9
$FILLMODE
 70
     1
  9
$QTEXTMODE
 70
     0
  9
$DRAGMODE
 70
     2
  9
$LTSCALE
 40
4.95
  9
$OSMODE
 70
     0
  9
$ATTMODE
 70
     1
  9
$TEXTSIZE
 40
3.2
  9
$TRACEWID
 40
0.05
  9
$TEXTSTYLE
  7
STANDARD
  9
$CLAYER
  8
0
  9
$CELTYPE
  6
CONTINUOUS
  9
$CECOLOR
 62
   256
  9
$DIMSCALE
 40
1.0
  9
$DIMASZ
 40
0.18
  9
$DIMEXO
 40
0.0625
  9
$DIMDLI
 40
0.38
  9
$DIMRND
 40
0.0
  9
$DIMDLE
 40
0.0
  9
$DIMEXE
 40
0.18
  9
$DIMTP
 40
0.0
  9
$DIMTM
 40
0.0
  9
$DIMTXT
 40
0.18
  9
$DIMCEN
 40
0.09
  9
$DIMTSZ
 40
0.0
  9
$DIMTOL
 70
     0
  9
$DIMLIM
 70
     0
  9
$DIMTIH
 70
     1
  9
$DIMTOH
 70
     1
  9
$DIMSE1
 70
     0
  9
$DIMSE2
 70
     0
  9
$DIMTAD
 70
     0
  9
$DIMZIN
 70
     0
  9
$DIMBLK
  1

  9
$DIMASO
 70
     1
  9
$DIMSHO
 70
     1
  9
$DIMPOST
  1

  9
$DIMAPOST
  1

  9
$DIMALT
 70
     0
  9
$DIMALTD
 70
     2
  9
$DIMALTF
 40
25.4
  9
$DIMLFAC
 40
1.0
  9
$LUNITS
 70
     2
  9
$LUPREC
 70
     4
  9
$AXISMODE
 70
     0
  9
$AXISUNIT
 10
0.0
 20
0.0
  9
$SKETCHINC
 40
0.1
  9
$FILLETRAD
 40
0.0
  9
$AUNITS
 70
     0
  9
$AUPREC
 70
     0
  9
$MENU
  1
acad
  9
$ELEVATION
 40
0.0
  9
$THICKNESS
 40
0.0
  9
$VIEWDIR
 10
0.0
 20
0.0
 30
1.0
  9
$LIMCHECK
 70
     0
  9
$BLIPMODE
 70
     1
  9
$CHAMFERA
 40
0.0
  9
$CHAMFERB
 40
0.0
  9
$FASTZOOM
 70
     1
  9
$SKPOLY
 70
     0
  9
$TDCREATE
 40
0.000000000
  9
$TDUPDATE
 40
0.000000000
  9
$TDINDWG
 40
0.0000000000
  9
$TDUSRTIMER
 40
0.0000000000
  9
$USRTIMER
 70
     1
  9
$ANGBASE
 50
0.0
  9
$ANGDIR
 70
     0
  9
$PDMODE
 70
     0
  9
$PDSIZE
 40
0.0
  9
$PLINEWID
 40
0.0
  9
$COORDS
 70
     1
  9
$USERI1
 70
     0
  9
$USERI2
 70
     0
  9
$USERI3
 70
     0
  9
$USERI4
 70
     0
  9
$USERI5
 70
     0
  9
$USERR1
 40
0.0
  9
$USERR2
 40
0.0
  9
$USERR3
 40
0.0
  9
$USERR4
 40
0.0
  9
$USERR5
 40
0.0
  0
ENDSEC
  0
SECTION
  2
TABLES
  0
TABLE
  2
LTYPE
 70
     5
  0
LTYPE
  2
CONTINUOUS
 70
    64
  3
Solid line
 72
    65
 73
     0
 40
0.0
  0
LTYPE
  2
DASHED
 70
    64
  3
DASHED
 72
    65
 73
     2
 40
0.75
 49
0.5
 49
-0.25
  0
LTYPE
  2
HIDDEN
 70
    64
  3
HIDDEN
 72
    65
 73
     2
 40
0.375
 49
0.25
 49
-0.125
  0
LTYPE
  2
CENTER
 70
    64
  3
CENTER
 72
    65
 73
     4
 40
2.0
 49
1.25
 49
-0.25
 49
0.25
 49
-0.25
  0
LTYPE
  2
PHANTOM
 70
    64
  3
PHANTOM
 72
    65
 73
     6
 40
2.5
 49
1.25
 49
-0.25
 49
0.25
 49
-0.25
 49
0.25
 49
-0.25
  0
ENDTAB
  0
TABLE
  2
LAYER
 70
     2
  0
LAYER
  2
0
 70
     0
 62
     7
  6
CONTINUOUS
  0
LAYER
  2
001
 70
     0
 62
     7
  6
CONTINUOUS
  0
ENDTAB
  0
TABLE
  2
STYLE
 70
     2
  0
STYLE
  2
STANDARD
 70
     0
 40
0.0
 41
1.0
 50
0.0
 71
     0
 42
0.2
  3
TXT
  4
BIGFONT
  0
STYLE
  2
TATEGAKI
 70
     4
 40
1.0
 41
1.0
 50
0.0
 71
     0
 42
0.2
  3
TXT
  4
BIGFONT
  0
ENDTAB
  0
TABLE
  2
VIEW
 70
     0
  0
ENDTAB
  0
ENDSEC
  0
SECTION
  2
BLOCKS
  0
BLOCK
  8
001
  2
*D0
 70
     1
 10
0.0
 20
0.0
  0
LINE
  8
001
 10
76.199513
 20
187.663113
 11
87.690742
 21
187.663113
  0
LINE
  8
001
 10
76.199513
 20
172.663113
 11
87.690742
 21
172.663113
  0
LINE
  8
001
 10
86.690742
 20
187.663113
 11
86.690742
 21
172.663113
  0
POLYLINE
  8
001
 66
     1
  0
VERTEX
  8
001
 10
87.226641
 20
189.663113
  0
VERTEX
  8
001
 10
86.690742
 20
187.663113
  0
VERTEX
  8
001
 10
86.154844
 20
189.663113
  0
SEQEND
  8
001
  0
POLYLINE
  8
001
 66
     1
  0
VERTEX
  8
001
 10
86.154844
 20
170.663113
  0
VERTEX
  8
001
 10
86.690742
 20
172.663113
  0
VERTEX
  8
001
 10
87.226641
 20
170.663113
  0
SEQEND
  8
001
  0
TEXT
  8
001
 10
85.080742
 20
191.463113
 40
3.6
  1
%%c15h9
 50
90.000003
 41
0.921429
  0
TEXT
  8
001
 10
83.030742
 20
206.943113
 40
2.16
  1
 0
 50
90.000003
 41
1.2
  0
TEXT
  8
001
 10
85.690742
 20
206.943113
 40
2.16
  1
-0.043
 50
90.000003
 41
0.946
  0
POINT
  8
001
 10
76.199513
 20
187.663113
  0
POINT
  8
001
 10
76.199513
 20
172.663113
  0
POINT
  8
001
 10
86.690742
 20
172.663113
  0
LINE
  8
001
 10
86.690742
 20
187.663113
 11
86.690742
 21
218.159913
  0
LINE
  8
001
 10
86.690742
 20
172.663113
 11
86.690742
 21
169.663113
  0
ENDBLK
  8
001
  0
BLOCK
  8
001
  2
*D1
 70
     1
 10
0.0
 20
0.0
  0
LINE
  8
001
 10
75.199513
 20
171.663113
 11
75.199513
 21
157.558188
  0
LINE
  8
001
 10
60.199513
 20
172.163113
 11
60.199513
 21
157.558188
  0
LINE
  8
001
 10
75.199513
 20
158.558188
 11
60.199513
 21
158.558188
  0
POLYLINE
  8
001
 66
     1
  0
VERTEX
  8
001
 10
73.199513
 20
159.094086
  0
VERTEX
  8
001
 10
75.199513
 20
158.558188
  0
VERTEX
  8
001
 10
73.199513
 20
158.022289
  0
SEQEND
  8
001
  0
POLYLINE
  8
001
 66
     1
  0
VERTEX
  8
001
 10
62.199513
 20
158.022289
  0
VERTEX
  8
001
 10
60.199513
 20
158.558188
  0
VERTEX
  8
001
 10
62.199513
 20
159.094086
  0
SEQEND
  8
001
  0
TEXT
  8
001
 10
61.352713
 20
160.168188
 40
3.6
  1
15
 41
1.032
  0
TEXT
  8
001
 10
67.544713
 20
162.218188
 40
2.16
  1
 0
 41
1.2
  0
TEXT
  8
001
 10
67.544713
 20
159.558188
 40
2.16
  1
-0.1
 41
1.062353
  0
POINT
  8
001
 10
75.199513
 20
171.663113
  0
POINT
  8
001
 10
60.199513
 20
172.163113
  0
POINT
  8
001
 10
60.199513
 20
158.558188
  0
ENDBLK
  8
001
  0
BLOCK
  8
001
  2
DIM-1
 70
     0
 10
0.0
 20
0.0
  0
TEXT
  8
001
 10
156.793315
 20
198.068009
 40
3.6
  1
黄銅
 41
0.716667
  0
POLYLINE
  8
001
 66
     1
 70
     1
 40
0.5
 41
0.5
  0
VERTEX
  8
001
 10
148.706836
 20
184.551507
 42
1.0
  0
VERTEX
  8
001
 10
148.206836
 20
184.551507
 42
1.0
  0
SEQEND
  8
001
  0
POLYLINE
  8
001
 66
     1
  0
VERTEX
  8
001
 10
148.456836
 20
184.551507
  0
VERTEX
  8
001
 10
154.793315
 20
197.068009
  0
VERTEX
  8
001
 10
164.985315
 20
197.068009
  0
SEQEND
  8
001
  0
ENDBLK
  8
001
  0
BLOCK
  8
001
  2
DIM-2
 70
     0
 10
0.0
 20
0.0
  0
TEXT
  8
001
 10
124.156094
 20
164.655765
 40
3.6
  1
軟鋼
 41
0.716667
  0
POLYLINE
  8
001
 66
     1
 70
     1
 40
0.5
 41
0.5
  0
VERTEX
  8
001
 10
142.533067
 20
173.981879
 42
1.0
  0
VERTEX
  8
001
 10
142.033067
 20
173.981879
 42
1.0
  0
SEQEND
  8
001
  0
POLYLINE
  8
001
 66
     1
  0
VERTEX
  8
001
 10
142.283067
 20
173.981879
  0
VERTEX
  8
001
 10
132.348094
 20
163.655765
  0
VERTEX
  8
001
 10
122.156094
 20
163.655765
  0
SEQEND
  8
001
  0
ENDBLK
  8
001
  0
BLOCK
  8
001
  2
DIM-3
 70
     0
 10
0.0
 20
0.0
  0
TEXT
  8
001
 10
158.873106
 20
163.285306
 40
3.6
  1
アルニコ磁石
 41
0.716667
  0
POLYLINE
  8
001
 66
     1
 70
     1
 40
0.5
 41
0.5
  0
VERTEX
  8
001
 10
146.928928
 20
177.422117
 42
1.0
  0
VERTEX
  8
001
 10
146.428928
 20
177.422117
 42
1.0
  0
SEQEND
  8
001
  0
POLYLINE
  8
001
 66
     1
  0
VERTEX
  8
001
 10
146.678928
 20
177.422117
  0
VERTEX
  8
001
 10
156.873106
 20
162.285306
  0
VERTEX
  8
001
 10
179.449106
 20
162.285306
  0
SEQEND
  8
001
  0
ENDBLK
  8
001
  0
BLOCK
  8
001
  2
DIM-4
 70
     0
 10
0.0
 20
0.0
  0
TEXT
  8
001
 10
94.217066
 20
156.374076
 40
3.6
  1
吸着面
 41
0.716667
  0
POLYLINE
  8
001
 66
     1
  0
VERTEX
  8
001
 10
76.037927
 20
174.581265
  0
VERTEX
  8
001
 10
75.199513
 20
176.474476
  0
VERTEX
  8
001
 10
76.872206
 20
175.254114
  0
SEQEND
  8
001
  0
POLYLINE
  8
001
 66
     1
  0
VERTEX
  8
001
 10
75.199513
 20
176.474476
  0
VERTEX
  8
001
 10
92.217066
 20
155.374076
  0
VERTEX
  8
001
 10
105.505066
 20
155.374076
  0
SEQEND
  8
001
  0
ENDBLK
  8
001
  0
ENDSEC
  0
SECTION
  2
ENTITIES
  0
DIMENSION
  8
001
  2
*D0
 10
86.690742
 20
172.663113
 11
85.080742
 21
191.463113
 13
76.199513
 23
187.663113
 14
76.199513
 24
172.663113
 50
270.0
  0
DIMENSION
  8
001
  2
*D1
 10
60.199513
 20
158.558188
 11
61.352713
 21
160.168188
 13
75.199513
 23
171.663113
 14
60.199513
 24
172.163113
 50
180.0
  0
INSERT
  8
001
  6
BYBLOCK
 62
     0
  2
DIM-1
 10
0.0
 20
0.0
  0
INSERT
  8
001
  6
BYBLOCK
 62
     0
  2
DIM-2
 10
0.0
 20
0.0
  0
INSERT
  8
001
  6
BYBLOCK
 62
     0
  2
DIM-3
 10
0.0
 20
0.0
  0
INSERT
  8
001
  6
BYBLOCK
 62
     0
  2
DIM-4
 10
0.0
 20
0.0
  0
CIRCLE
  8
001
 62
     3
 10
145.199513
 20
180.163113
 40
7.5
  0
CIRCLE
  8
001
 10
145.199513
 20
180.163113
 40
6.0
  0
CIRCLE
  8
001
 10
145.199513
 20
180.163113
 40
5.0
  0
LINE
  8
001
  6
CENTER
 10
78.077517
 20
180.163113
 11
57.286323
 21
180.163113
  0
LINE
  8
001
 10
0.0
 20
297.0
 11
0.0
 21
0.0
  0
LINE
  8
001
 10
0.0
 20
0.0
 11
210.0
 21
0.0
  0
LINE
  8
001
 10
210.0
 20
0.0
 11
210.0
 21
297.0
  0
LINE
  8
001
 10
210.0
 20
297.0
 11
0.0
 21
297.0
  0
TEXT
  8
001
 10
147.594426
 20
21.847548
 40
3.6
  1
KM-H0015
 41
0.938182
  0
LINE
  8
001
 62
     3
 10
75.199513
 20
187.663113
 11
60.699513
 21
187.663113
  0
LINE
  8
001
 62
     3
 10
60.199513
 20
187.163113
 11
60.699513
 21
187.663113
  0
LINE
  8
001
 62
     3
 10
75.199513
 20
172.663113
 11
60.699513
 21
172.663113
  0
LINE
  8
001
 62
     3
 10
60.199513
 20
173.163113
 11
60.699513
 21
172.663113
  0
LINE
  8
001
 62
     3
 10
60.199513
 20
173.163113
 11
60.199513
 21
187.163113
  0
LINE
  8
001
 62
     3
 10
75.199513
 20
172.663113
 11
75.199513
 21
187.663113
  0
LINE
  8
001
  6
CENTER
 10
136.0022
 20
180.163113
 11
154.331621
 21
180.163113
  0
LINE
  8
001
  6
CENTER
 10
145.199513
 20
170.665806
 11
145.199513
 21
189.137316
  0
LINE
  8
001
  6
DASHED
 10
75.199513
 20
186.163113
 11
70.199513
 21
186.163113
  0
LINE
  8
001
  6
DASHED
 10
75.199513
 20
174.163113
 11
70.199513
 21
174.163113
  0
TEXT
  8
001
 10
92.409344
 20
114.924918
 40
3.6
  1
表面処理：　　なし　　
 41
0.716667
  0
LINE
  8
001
 10
92.409344
 20
113.924918
 11
126.465344
 21
113.924918
  0
LINE
  8
001
  6
DASHED
 10
75.199513
 20
185.163113
 11
70.199513
 21
185.163113
  0
LINE
  8
001
  6
DASHED
 10
75.199513
 20
175.163113
 11
70.199513
 21
175.163113
  0
ENDSEC
  0
EOF
