  0
SECTION
  2
HEADER
  9
$ACADVER
  1
AC1003
  9
$INSBASE
 10
0.0
 20
0.0
  9
$EXTMIN
 10
0.0
 20
0.0
  9
$EXTMAX
 10
210.0
 20
297.0
  9
$LIMMIN
 10
0.0
 20
0.0
  9
$LIMMAX
 10
12.0
 20
9.0
  9
$VIEWCTR
 10
6.591288
 20
4.579184
  9
$VIEWSIZE
 40
9.158369
  9
$SNAPMODE
 70
     0
  9
$SNAPUNIT
 10
1.0
 20
1.0
  9
$SNAPBASE
 10
0.0
 20
0.0
  9
$SNAPANG
 50
0.0
  9
$SNAPSTYLE
 70
     0
  9
$SNAPISOPAIR
 70
     0
  9
$GRIDMODE
 70
     0
  9
$GRIDUNIT
 10
0.0
 20
0.0
  9
$ORTHOMODE
 70
     0
  9
$REGENMODE
 70
     1
  9
$FILLMODE
 70
     1
  9
$QTEXTMODE
 70
     0
  9
$DRAGMODE
 70
     2
  9
$LTSCALE
 40
4.95
  9
$OSMODE
 70
     0
  9
$ATTMODE
 70
     1
  9
$TEXTSIZE
 40
3.2
  9
$TRACEWID
 40
0.05
  9
$TEXTSTYLE
  7
STANDARD
  9
$CLAYER
  8
0
  9
$CELTYPE
  6
CONTINUOUS
  9
$CECOLOR
 62
   256
  9
$DIMSCALE
 40
1.0
  9
$DIMASZ
 40
0.18
  9
$DIMEXO
 40
0.0625
  9
$DIMDLI
 40
0.38
  9
$DIMRND
 40
0.0
  9
$DIMDLE
 40
0.0
  9
$DIMEXE
 40
0.18
  9
$DIMTP
 40
0.0
  9
$DIMTM
 40
0.0
  9
$DIMTXT
 40
0.18
  9
$DIMCEN
 40
0.09
  9
$DIMTSZ
 40
0.0
  9
$DIMTOL
 70
     0
  9
$DIMLIM
 70
     0
  9
$DIMTIH
 70
     1
  9
$DIMTOH
 70
     1
  9
$DIMSE1
 70
     0
  9
$DIMSE2
 70
     0
  9
$DIMTAD
 70
     0
  9
$DIMZIN
 70
     0
  9
$DIMBLK
  1

  9
$DIMASO
 70
     1
  9
$DIMSHO
 70
     1
  9
$DIMPOST
  1

  9
$DIMAPOST
  1

  9
$DIMALT
 70
     0
  9
$DIMALTD
 70
     2
  9
$DIMALTF
 40
25.4
  9
$DIMLFAC
 40
1.0
  9
$LUNITS
 70
     2
  9
$LUPREC
 70
     4
  9
$AXISMODE
 70
     0
  9
$AXISUNIT
 10
0.0
 20
0.0
  9
$SKETCHINC
 40
0.1
  9
$FILLETRAD
 40
0.0
  9
$AUNITS
 70
     0
  9
$AUPREC
 70
     0
  9
$MENU
  1
acad
  9
$ELEVATION
 40
0.0
  9
$THICKNESS
 40
0.0
  9
$VIEWDIR
 10
0.0
 20
0.0
 30
1.0
  9
$LIMCHECK
 70
     0
  9
$BLIPMODE
 70
     1
  9
$CHAMFERA
 40
0.0
  9
$CHAMFERB
 40
0.0
  9
$FASTZOOM
 70
     1
  9
$SKPOLY
 70
     0
  9
$TDCREATE
 40
0.000000000
  9
$TDUPDATE
 40
0.000000000
  9
$TDINDWG
 40
0.0000000000
  9
$TDUSRTIMER
 40
0.0000000000
  9
$USRTIMER
 70
     1
  9
$ANGBASE
 50
0.0
  9
$ANGDIR
 70
     0
  9
$PDMODE
 70
     0
  9
$PDSIZE
 40
0.0
  9
$PLINEWID
 40
0.0
  9
$COORDS
 70
     1
  9
$USERI1
 70
     0
  9
$USERI2
 70
     0
  9
$USERI3
 70
     0
  9
$USERI4
 70
     0
  9
$USERI5
 70
     0
  9
$USERR1
 40
0.0
  9
$USERR2
 40
0.0
  9
$USERR3
 40
0.0
  9
$USERR4
 40
0.0
  9
$USERR5
 40
0.0
  0
ENDSEC
  0
SECTION
  2
TABLES
  0
TABLE
  2
LTYPE
 70
     5
  0
LTYPE
  2
CONTINUOUS
 70
    64
  3
Solid line
 72
    65
 73
     0
 40
0.0
  0
LTYPE
  2
DASHED
 70
    64
  3
DASHED
 72
    65
 73
     2
 40
0.75
 49
0.5
 49
-0.25
  0
LTYPE
  2
HIDDEN
 70
    64
  3
HIDDEN
 72
    65
 73
     2
 40
0.375
 49
0.25
 49
-0.125
  0
LTYPE
  2
CENTER
 70
    64
  3
CENTER
 72
    65
 73
     4
 40
2.0
 49
1.25
 49
-0.25
 49
0.25
 49
-0.25
  0
LTYPE
  2
PHANTOM
 70
    64
  3
PHANTOM
 72
    65
 73
     6
 40
2.5
 49
1.25
 49
-0.25
 49
0.25
 49
-0.25
 49
0.25
 49
-0.25
  0
ENDTAB
  0
TABLE
  2
LAYER
 70
     2
  0
LAYER
  2
0
 70
     0
 62
     7
  6
CONTINUOUS
  0
LAYER
  2
001
 70
     0
 62
     7
  6
CONTINUOUS
  0
ENDTAB
  0
TABLE
  2
STYLE
 70
     2
  0
STYLE
  2
STANDARD
 70
     0
 40
0.0
 41
1.0
 50
0.0
 71
     0
 42
0.2
  3
TXT
  4
BIGFONT
  0
STYLE
  2
TATEGAKI
 70
     4
 40
1.0
 41
1.0
 50
0.0
 71
     0
 42
0.2
  3
TXT
  4
BIGFONT
  0
ENDTAB
  0
TABLE
  2
VIEW
 70
     0
  0
ENDTAB
  0
ENDSEC
  0
SECTION
  2
BLOCKS
  0
BLOCK
  8
001
  2
DIM-1
 70
     0
 10
0.0
 20
0.0
  0
TEXT
  8
001
 10
20.018283
 20
192.001245
 40
3.6
  1
Ｍ５×Ｐ０．８
 41
0.833333
  0
POLYLINE
  8
001
 66
     1
  0
VERTEX
  8
001
 10
57.065089
 20
177.6622
  0
VERTEX
  8
001
 10
57.614884
 20
175.665975
  0
VERTEX
  8
001
 10
56.140636
 20
177.119859
  0
SEQEND
  8
001
  0
POLYLINE
  8
001
 66
     1
  0
VERTEX
  8
001
 10
57.614884
 20
175.665975
  0
VERTEX
  8
001
 10
48.618283
 20
191.001245
  0
VERTEX
  8
001
 10
16.418283
 20
191.001245
  0
SEQEND
  8
001
  0
ENDBLK
  8
001
  0
BLOCK
  8
001
  2
*D1
 70
     1
 10
0.0
 20
0.0
  0
LINE
  8
001
 10
108.438613
 20
183.815388
 11
123.118941
 21
183.815388
  0
LINE
  8
001
 10
108.438613
 20
163.815388
 11
123.118941
 21
163.815388
  0
LINE
  8
001
 10
122.118941
 20
183.815388
 11
122.118941
 21
163.815388
  0
POLYLINE
  8
001
 66
     1
  0
VERTEX
  8
001
 10
121.583042
 20
181.815388
  0
VERTEX
  8
001
 10
122.118941
 20
183.815388
  0
VERTEX
  8
001
 10
122.654839
 20
181.815388
  0
SEQEND
  8
001
  0
POLYLINE
  8
001
 66
     1
  0
VERTEX
  8
001
 10
122.654839
 20
165.815388
  0
VERTEX
  8
001
 10
122.118941
 20
163.815388
  0
VERTEX
  8
001
 10
121.583042
 20
165.815388
  0
SEQEND
  8
001
  0
TEXT
  8
001
 10
121.118941
 20
169.171388
 40
3.6
  1
%%c20
 50
90.000003
 41
0.910588
  0
POINT
  8
001
 10
108.438613
 20
183.815388
  0
POINT
  8
001
 10
108.438613
 20
163.815388
  0
POINT
  8
001
 10
122.118941
 20
163.815388
  0
ENDBLK
  8
001
  0
BLOCK
  8
001
  2
*D2
 70
     1
 10
0.0
 20
0.0
  0
LINE
  8
001
 10
107.638613
 20
184.615388
 11
107.638613
 21
194.381555
  0
LINE
  8
001
 10
89.638613
 20
184.315388
 11
89.638613
 21
194.381555
  0
LINE
  8
001
 10
107.638613
 20
193.381555
 11
89.638613
 21
193.381555
  0
POLYLINE
  8
001
 66
     1
  0
VERTEX
  8
001
 10
105.638613
 20
193.917453
  0
VERTEX
  8
001
 10
107.638613
 20
193.381555
  0
VERTEX
  8
001
 10
105.638613
 20
192.845657
  0
SEQEND
  8
001
  0
POLYLINE
  8
001
 66
     1
  0
VERTEX
  8
001
 10
91.638613
 20
192.845657
  0
VERTEX
  8
001
 10
89.638613
 20
193.381555
  0
VERTEX
  8
001
 10
91.638613
 20
193.917453
  0
SEQEND
  8
001
  0
TEXT
  8
001
 10
95.542613
 20
194.381555
 40
3.6
  1
18
 41
1.032
  0
POINT
  8
001
 10
107.638613
 20
184.615388
  0
POINT
  8
001
 10
89.638613
 20
184.315388
  0
POINT
  8
001
 10
89.638613
 20
193.381555
  0
ENDBLK
  8
001
  0
BLOCK
  8
001
  2
DIM-2
 70
     0
 10
0.0
 20
0.0
  0
TEXT
  8
001
 10
169.749838
 20
194.063826
 40
3.6
  1
黄銅
 41
0.716667
  0
POLYLINE
  8
001
 66
     1
 70
     1
 40
0.5
 41
0.5
  0
VERTEX
  8
001
 10
161.663359
 20
180.547325
 42
1.0
  0
VERTEX
  8
001
 10
161.163359
 20
180.547325
 42
1.0
  0
SEQEND
  8
001
  0
POLYLINE
  8
001
 66
     1
  0
VERTEX
  8
001
 10
161.413359
 20
180.547325
  0
VERTEX
  8
001
 10
167.749838
 20
193.063826
  0
VERTEX
  8
001
 10
177.941838
 20
193.063826
  0
SEQEND
  8
001
  0
ENDBLK
  8
001
  0
BLOCK
  8
001
  2
DIM-3
 70
     0
 10
0.0
 20
0.0
  0
TEXT
  8
001
 10
132.308035
 20
159.411565
 40
3.6
  1
軟鋼
 41
0.716667
  0
POLYLINE
  8
001
 66
     1
 70
     1
 40
0.5
 41
0.5
  0
VERTEX
  8
001
 10
150.685008
 20
168.737679
 42
1.0
  0
VERTEX
  8
001
 10
150.185008
 20
168.737679
 42
1.0
  0
SEQEND
  8
001
  0
POLYLINE
  8
001
 66
     1
  0
VERTEX
  8
001
 10
150.435008
 20
168.737679
  0
VERTEX
  8
001
 10
140.500035
 20
158.411565
  0
VERTEX
  8
001
 10
130.308035
 20
158.411565
  0
SEQEND
  8
001
  0
ENDBLK
  8
001
  0
BLOCK
  8
001
  2
DIM-4
 70
     0
 10
0.0
 20
0.0
  0
TEXT
  8
001
 10
171.932552
 20
157.598179
 40
3.6
  1
アルニコ磁石
 41
0.716667
  0
POLYLINE
  8
001
 66
     1
 70
     1
 40
0.5
 41
0.5
  0
VERTEX
  8
001
 10
159.988373
 20
171.73499
 42
1.0
  0
VERTEX
  8
001
 10
159.488373
 20
171.73499
 42
1.0
  0
SEQEND
  8
001
  0
POLYLINE
  8
001
 66
     1
  0
VERTEX
  8
001
 10
159.738373
 20
171.73499
  0
VERTEX
  8
001
 10
169.932552
 20
156.598179
  0
VERTEX
  8
001
 10
192.508551
 20
156.598179
  0
SEQEND
  8
001
  0
ENDBLK
  8
001
  0
BLOCK
  8
001
  2
DIM-5
 70
     0
 10
0.0
 20
0.0
  0
TEXT
  8
001
 10
126.656166
 20
149.98384
 40
3.6
  1
吸着面
 41
0.716667
  0
POLYLINE
  8
001
 66
     1
  0
VERTEX
  8
001
 10
108.477027
 20
168.191029
  0
VERTEX
  8
001
 10
107.638613
 20
170.08424
  0
VERTEX
  8
001
 10
109.311306
 20
168.863878
  0
SEQEND
  8
001
  0
POLYLINE
  8
001
 66
     1
  0
VERTEX
  8
001
 10
107.638613
 20
170.08424
  0
VERTEX
  8
001
 10
124.656166
 20
148.98384
  0
VERTEX
  8
001
 10
137.944166
 20
148.98384
  0
SEQEND
  8
001
  0
ENDBLK
  8
001
  0
BLOCK
  8
001
  2
*D7
 70
     1
 10
0.0
 20
0.0
  0
LINE
  8
001
 10
94.638613
 20
170.315388
 11
94.638613
 21
150.79527
  0
LINE
  8
001
 10
89.638613
 20
163.315388
 11
89.638613
 21
150.79527
  0
LINE
  8
001
 10
94.638613
 20
151.79527
 11
89.638613
 21
151.79527
  0
POLYLINE
  8
001
 66
     1
  0
VERTEX
  8
001
 10
96.638613
 20
151.259372
  0
VERTEX
  8
001
 10
94.638613
 20
151.79527
  0
VERTEX
  8
001
 10
96.638613
 20
152.331169
  0
SEQEND
  8
001
  0
POLYLINE
  8
001
 66
     1
  0
VERTEX
  8
001
 10
87.638613
 20
152.331169
  0
VERTEX
  8
001
 10
89.638613
 20
151.79527
  0
VERTEX
  8
001
 10
87.638613
 20
151.259372
  0
SEQEND
  8
001
  0
TEXT
  8
001
 10
82.742613
 20
152.79527
 40
3.6
  1
5
 41
0.86
  0
POINT
  8
001
 10
94.638613
 20
170.315388
  0
POINT
  8
001
 10
89.638613
 20
163.315388
  0
POINT
  8
001
 10
89.638613
 20
151.79527
  0
LINE
  8
001
 10
94.638613
 20
151.79527
 11
97.638613
 21
151.79527
  0
LINE
  8
001
 10
89.638613
 20
151.79527
 11
81.742613
 21
151.79527
  0
ENDBLK
  8
001
  0
ENDSEC
  0
SECTION
  2
ENTITIES
  0
INSERT
  8
001
  6
BYBLOCK
 62
     0
  2
DIM-1
 10
0.0
 20
0.0
  0
DIMENSION
  8
001
  2
*D1
 10
122.118941
 20
163.815388
 11
121.118941
 21
169.171388
 13
108.438613
 23
183.815388
 14
108.438613
 24
163.815388
 50
270.0
  0
DIMENSION
  8
001
  2
*D2
 10
89.638613
 20
193.381555
 11
95.542613
 21
194.381555
 13
107.638613
 23
184.615388
 14
89.638613
 24
184.315388
 50
180.0
  0
INSERT
  8
001
  6
BYBLOCK
 62
     0
  2
DIM-2
 10
0.0
 20
0.0
  0
INSERT
  8
001
  6
BYBLOCK
 62
     0
  2
DIM-3
 10
0.0
 20
0.0
  0
INSERT
  8
001
  6
BYBLOCK
 62
     0
  2
DIM-4
 10
0.0
 20
0.0
  0
INSERT
  8
001
  6
BYBLOCK
 62
     0
  2
DIM-5
 10
0.0
 20
0.0
  0
DIMENSION
  8
001
  2
*D7
 10
89.638613
 20
151.79527
 11
82.742613
 21
152.79527
 13
94.638613
 23
170.315388
 14
89.638613
 24
163.315388
 50
180.0
  0
LINE
  8
001
 10
0.0
 20
297.0
 11
0.0
 21
0.0
  0
LINE
  8
001
 10
0.0
 20
0.0
 11
210.0
 21
0.0
  0
LINE
  8
001
 10
210.0
 20
0.0
 11
210.0
 21
297.0
  0
LINE
  8
001
 10
210.0
 20
297.0
 11
0.0
 21
297.0
  0
LINE
  8
001
  6
CENTER
 10
86.977571
 20
173.815388
 11
109.763769
 21
173.815388
  0
LINE
  8
001
 62
     3
 10
90.138613
 20
163.815388
 11
107.438613
 21
163.815388
  0
LINE
  8
001
 62
     3
 10
89.638613
 20
164.315388
 11
90.138613
 21
163.815388
  0
LINE
  8
001
 62
     3
 10
89.638613
 20
164.315388
 11
89.638613
 21
183.315388
  0
LINE
  8
001
 62
     3
 10
90.138613
 20
183.815388
 11
89.638613
 21
183.315388
  0
LINE
  8
001
 62
     3
 10
90.138613
 20
183.815388
 11
107.438613
 21
183.815388
  0
LINE
  8
001
 62
     3
 10
107.638613
 20
183.615388
 11
107.638613
 21
164.015388
  0
LINE
  8
001
 62
     3
 10
107.638613
 20
164.015388
 11
107.438613
 21
163.815388
  0
LINE
  8
001
 62
     3
 10
107.638613
 20
183.615388
 11
107.438613
 21
183.815388
  0
LINE
  8
001
 10
90.138613
 20
163.815388
 11
90.138613
 21
183.815388
  0
CIRCLE
  8
001
 10
157.98147
 20
173.815388
 40
7.0
  0
CIRCLE
  8
001
 10
157.98147
 20
173.815388
 40
8.0
  0
LINE
  8
001
  6
CENTER
 10
157.98147
 20
186.315388
 11
157.98147
 21
161.315388
  0
LINE
  8
001
  6
CENTER
 10
145.48147
 20
173.815388
 11
170.48147
 21
173.815388
  0
CIRCLE
  8
001
 62
     3
 10
157.98147
 20
173.815388
 40
10.0
  0
LINE
  8
001
  6
DASHED
 10
94.638613
 20
176.315388
 11
89.638613
 21
176.315388
  0
LINE
  8
001
  6
DASHED
 10
96.338613
 20
175.815388
 11
89.638613
 21
175.815388
  0
LINE
  8
001
  6
DASHED
 10
96.338613
 20
175.815388
 11
96.338613
 21
171.815388
  0
LINE
  8
001
  6
DASHED
 10
94.638613
 20
171.315388
 11
94.638613
 21
176.315388
  0
LINE
  8
001
  6
DASHED
 10
95.138613
 20
175.815388
 11
95.138613
 21
171.815388
  0
LINE
  8
001
  6
DASHED
 10
96.338613
 20
175.815388
 11
97.493313
 21
173.815388
  0
LINE
  8
001
  6
DASHED
 10
95.138613
 20
175.815388
 11
94.638613
 21
176.315388
  0
LINE
  8
001
  6
DASHED
 10
96.338613
 20
171.815388
 11
89.638613
 21
171.815388
  0
LINE
  8
001
  6
DASHED
 10
94.638613
 20
171.315388
 11
89.638613
 21
171.315388
  0
LINE
  8
001
  6
DASHED
 10
96.338613
 20
171.815388
 11
97.493313
 21
173.815388
  0
LINE
  8
001
  6
DASHED
 10
95.138613
 20
171.815388
 11
94.638613
 21
171.315388
  0
LINE
  8
001
  6
CENTER
 10
59.295755
 20
186.315388
 11
59.295755
 21
161.315388
  0
LINE
  8
001
  6
CENTER
 10
71.795755
 20
173.815388
 11
46.795755
 21
173.815388
  0
CIRCLE
  8
001
 62
     3
 10
59.295755
 20
173.815388
 40
10.0
  0
CIRCLE
  8
001
 10
59.295755
 20
173.815388
 40
2.5
  0
CIRCLE
  8
001
 10
59.295755
 20
173.815388
 40
2.0
  0
LINE
  8
001
  6
DASHED
 10
107.638613
 20
181.815388
 11
102.638613
 21
181.815388
  0
LINE
  8
001
  6
DASHED
 10
107.638613
 20
165.815388
 11
102.638613
 21
165.815388
  0
TEXT
  8
001
 10
147.594426
 20
21.847548
 40
3.6
  1
KM-T002
 41
0.903
  0
LINE
  8
001
  6
DASHED
 10
107.638613
 20
180.815388
 11
102.638613
 21
180.815388
  0
LINE
  8
001
  6
DASHED
 10
107.638613
 20
166.815388
 11
102.638613
 21
166.815388
  0
TEXT
  8
001
 10
92.473936
 20
116.218954
 40
3.6
  1
表面処理：　ニッケルメッキ　
 41
0.716667
  0
LINE
  8
001
 10
92.473936
 20
115.218954
 11
135.817935
 21
115.218954
  0
ENDSEC
  0
EOF
