  0
SECTION
  2
HEADER
  9
$ACADVER
  1
AC1003
  9
$INSBASE
 10
0.0
 20
0.0
  9
$EXTMIN
 10
0.0
 20
0.0
  9
$EXTMAX
 10
210.0
 20
297.0
  9
$LIMMIN
 10
0.0
 20
0.0
  9
$LIMMAX
 10
12.0
 20
9.0
  9
$VIEWCTR
 10
6.591288
 20
4.579184
  9
$VIEWSIZE
 40
9.158369
  9
$SNAPMODE
 70
     0
  9
$SNAPUNIT
 10
1.0
 20
1.0
  9
$SNAPBASE
 10
0.0
 20
0.0
  9
$SNAPANG
 50
0.0
  9
$SNAPSTYLE
 70
     0
  9
$SNAPISOPAIR
 70
     0
  9
$GRIDMODE
 70
     0
  9
$GRIDUNIT
 10
0.0
 20
0.0
  9
$ORTHOMODE
 70
     0
  9
$REGENMODE
 70
     1
  9
$FILLMODE
 70
     1
  9
$QTEXTMODE
 70
     0
  9
$DRAGMODE
 70
     2
  9
$LTSCALE
 40
4.95
  9
$OSMODE
 70
     0
  9
$ATTMODE
 70
     1
  9
$TEXTSIZE
 40
3.2
  9
$TRACEWID
 40
0.05
  9
$TEXTSTYLE
  7
STANDARD
  9
$CLAYER
  8
0
  9
$CELTYPE
  6
CONTINUOUS
  9
$CECOLOR
 62
   256
  9
$DIMSCALE
 40
1.0
  9
$DIMASZ
 40
0.18
  9
$DIMEXO
 40
0.0625
  9
$DIMDLI
 40
0.38
  9
$DIMRND
 40
0.0
  9
$DIMDLE
 40
0.0
  9
$DIMEXE
 40
0.18
  9
$DIMTP
 40
0.0
  9
$DIMTM
 40
0.0
  9
$DIMTXT
 40
0.18
  9
$DIMCEN
 40
0.09
  9
$DIMTSZ
 40
0.0
  9
$DIMTOL
 70
     0
  9
$DIMLIM
 70
     0
  9
$DIMTIH
 70
     1
  9
$DIMTOH
 70
     1
  9
$DIMSE1
 70
     0
  9
$DIMSE2
 70
     0
  9
$DIMTAD
 70
     0
  9
$DIMZIN
 70
     0
  9
$DIMBLK
  1

  9
$DIMASO
 70
     1
  9
$DIMSHO
 70
     1
  9
$DIMPOST
  1

  9
$DIMAPOST
  1

  9
$DIMALT
 70
     0
  9
$DIMALTD
 70
     2
  9
$DIMALTF
 40
25.4
  9
$DIMLFAC
 40
1.0
  9
$LUNITS
 70
     2
  9
$LUPREC
 70
     4
  9
$AXISMODE
 70
     0
  9
$AXISUNIT
 10
0.0
 20
0.0
  9
$SKETCHINC
 40
0.1
  9
$FILLETRAD
 40
0.0
  9
$AUNITS
 70
     0
  9
$AUPREC
 70
     0
  9
$MENU
  1
acad
  9
$ELEVATION
 40
0.0
  9
$THICKNESS
 40
0.0
  9
$VIEWDIR
 10
0.0
 20
0.0
 30
1.0
  9
$LIMCHECK
 70
     0
  9
$BLIPMODE
 70
     1
  9
$CHAMFERA
 40
0.0
  9
$CHAMFERB
 40
0.0
  9
$FASTZOOM
 70
     1
  9
$SKPOLY
 70
     0
  9
$TDCREATE
 40
0.000000000
  9
$TDUPDATE
 40
0.000000000
  9
$TDINDWG
 40
0.0000000000
  9
$TDUSRTIMER
 40
0.0000000000
  9
$USRTIMER
 70
     1
  9
$ANGBASE
 50
0.0
  9
$ANGDIR
 70
     0
  9
$PDMODE
 70
     0
  9
$PDSIZE
 40
0.0
  9
$PLINEWID
 40
0.0
  9
$COORDS
 70
     1
  9
$USERI1
 70
     0
  9
$USERI2
 70
     0
  9
$USERI3
 70
     0
  9
$USERI4
 70
     0
  9
$USERI5
 70
     0
  9
$USERR1
 40
0.0
  9
$USERR2
 40
0.0
  9
$USERR3
 40
0.0
  9
$USERR4
 40
0.0
  9
$USERR5
 40
0.0
  0
ENDSEC
  0
SECTION
  2
TABLES
  0
TABLE
  2
LTYPE
 70
     5
  0
LTYPE
  2
CONTINUOUS
 70
    64
  3
Solid line
 72
    65
 73
     0
 40
0.0
  0
LTYPE
  2
DASHED
 70
    64
  3
DASHED
 72
    65
 73
     2
 40
0.75
 49
0.5
 49
-0.25
  0
LTYPE
  2
HIDDEN
 70
    64
  3
HIDDEN
 72
    65
 73
     2
 40
0.375
 49
0.25
 49
-0.125
  0
LTYPE
  2
CENTER
 70
    64
  3
CENTER
 72
    65
 73
     4
 40
2.0
 49
1.25
 49
-0.25
 49
0.25
 49
-0.25
  0
LTYPE
  2
PHANTOM
 70
    64
  3
PHANTOM
 72
    65
 73
     6
 40
2.5
 49
1.25
 49
-0.25
 49
0.25
 49
-0.25
 49
0.25
 49
-0.25
  0
ENDTAB
  0
TABLE
  2
LAYER
 70
     2
  0
LAYER
  2
0
 70
     0
 62
     7
  6
CONTINUOUS
  0
LAYER
  2
001
 70
     0
 62
     7
  6
CONTINUOUS
  0
ENDTAB
  0
TABLE
  2
STYLE
 70
     2
  0
STYLE
  2
STANDARD
 70
     0
 40
0.0
 41
1.0
 50
0.0
 71
     0
 42
0.2
  3
TXT
  4
BIGFONT
  0
STYLE
  2
TATEGAKI
 70
     4
 40
1.0
 41
1.0
 50
0.0
 71
     0
 42
0.2
  3
TXT
  4
BIGFONT
  0
ENDTAB
  0
TABLE
  2
VIEW
 70
     0
  0
ENDTAB
  0
ENDSEC
  0
SECTION
  2
BLOCKS
  0
BLOCK
  8
001
  2
DIM-1
 70
     0
 10
0.0
 20
0.0
  0
TEXT
  8
001
 10
15.46391
 20
195.216931
 40
3.6
  1
Ｍ６×Ｐ１．０
 41
0.833333
  0
POLYLINE
  8
001
 66
     1
  0
VERTEX
  8
001
 10
52.330926
 20
184.129136
  0
VERTEX
  8
001
 10
53.105898
 20
182.209083
  0
VERTEX
  8
001
 10
51.474726
 20
183.484412
  0
SEQEND
  8
001
  0
POLYLINE
  8
001
 66
     1
  0
VERTEX
  8
001
 10
53.105898
 20
182.209083
  0
VERTEX
  8
001
 10
44.06391
 20
194.216931
  0
VERTEX
  8
001
 10
11.86391
 20
194.216931
  0
SEQEND
  8
001
  0
ENDBLK
  8
001
  0
BLOCK
  8
001
  2
*D1
 70
     1
 10
0.0
 20
0.0
  0
LINE
  8
001
 10
89.830116
 20
193.463387
 11
89.830116
 21
206.297667
  0
LINE
  8
001
 10
119.830116
 20
193.963387
 11
119.830116
 21
206.297667
  0
LINE
  8
001
 10
89.830116
 20
205.297667
 11
119.830116
 21
205.297667
  0
POLYLINE
  8
001
 66
     1
  0
VERTEX
  8
001
 10
91.830116
 20
204.761769
  0
VERTEX
  8
001
 10
89.830116
 20
205.297667
  0
VERTEX
  8
001
 10
91.830116
 20
205.833566
  0
SEQEND
  8
001
  0
POLYLINE
  8
001
 66
     1
  0
VERTEX
  8
001
 10
117.830116
 20
205.833566
  0
VERTEX
  8
001
 10
119.830116
 20
205.297667
  0
VERTEX
  8
001
 10
117.830116
 20
204.761769
  0
SEQEND
  8
001
  0
TEXT
  8
001
 10
101.734116
 20
206.297667
 40
3.6
  1
30
 41
0.938182
  0
POINT
  8
001
 10
89.830116
 20
193.463387
  0
POINT
  8
001
 10
119.830116
 20
193.963387
  0
POINT
  8
001
 10
119.830116
 20
205.297667
  0
ENDBLK
  8
001
  0
BLOCK
  8
001
  2
*D2
 70
     1
 10
0.0
 20
0.0
  0
LINE
  8
001
 10
120.830116
 20
192.963387
 11
137.834859
 21
192.963387
  0
LINE
  8
001
 10
120.830116
 20
166.963387
 11
137.834859
 21
166.963387
  0
LINE
  8
001
 10
136.834859
 20
192.963387
 11
136.834859
 21
166.963387
  0
POLYLINE
  8
001
 66
     1
  0
VERTEX
  8
001
 10
136.298961
 20
190.963387
  0
VERTEX
  8
001
 10
136.834859
 20
192.963387
  0
VERTEX
  8
001
 10
137.370757
 20
190.963387
  0
SEQEND
  8
001
  0
POLYLINE
  8
001
 66
     1
  0
VERTEX
  8
001
 10
137.370757
 20
168.963387
  0
VERTEX
  8
001
 10
136.834859
 20
166.963387
  0
VERTEX
  8
001
 10
136.298961
 20
168.963387
  0
SEQEND
  8
001
  0
TEXT
  8
001
 10
135.834859
 20
175.319387
 40
3.6
  1
%%c26
 50
90.000003
 41
0.86
  0
POINT
  8
001
 10
120.830116
 20
192.963387
  0
POINT
  8
001
 10
120.830116
 20
166.963387
  0
POINT
  8
001
 10
136.834859
 20
166.963387
  0
ENDBLK
  8
001
  0
BLOCK
  8
001
  2
DIM-2
 70
     0
 10
0.0
 20
0.0
  0
TEXT
  8
001
 10
181.956616
 20
202.466904
 40
3.6
  1
黄銅
 41
0.716667
  0
POLYLINE
  8
001
 66
     1
 70
     1
 40
0.5
 41
0.5
  0
VERTEX
  8
001
 10
173.870137
 20
188.950402
 42
1.0
  0
VERTEX
  8
001
 10
173.370137
 20
188.950402
 42
1.0
  0
SEQEND
  8
001
  0
POLYLINE
  8
001
 66
     1
  0
VERTEX
  8
001
 10
173.620137
 20
188.950402
  0
VERTEX
  8
001
 10
179.956616
 20
201.466904
  0
VERTEX
  8
001
 10
190.148616
 20
201.466904
  0
SEQEND
  8
001
  0
ENDBLK
  8
001
  0
BLOCK
  8
001
  2
DIM-3
 70
     0
 10
0.0
 20
0.0
  0
TEXT
  8
001
 10
138.847669
 20
154.645375
 40
3.6
  1
吸着面
 41
0.716667
  0
POLYLINE
  8
001
 66
     1
  0
VERTEX
  8
001
 10
120.668531
 20
172.852563
  0
VERTEX
  8
001
 10
119.830116
 20
174.745774
  0
VERTEX
  8
001
 10
121.50281
 20
173.525413
  0
SEQEND
  8
001
  0
POLYLINE
  8
001
 66
     1
  0
VERTEX
  8
001
 10
119.830116
 20
174.745774
  0
VERTEX
  8
001
 10
136.847669
 20
153.645375
  0
VERTEX
  8
001
 10
150.135669
 20
153.645375
  0
SEQEND
  8
001
  0
ENDBLK
  8
001
  0
BLOCK
  8
001
  2
DIM-4
 70
     0
 10
0.0
 20
0.0
  0
TEXT
  8
001
 10
185.230078
 20
162.515229
 40
3.6
  1
軟鋼
 41
0.716667
  0
POLYLINE
  8
001
 66
     1
 70
     1
 40
0.5
 41
0.5
  0
VERTEX
  8
001
 10
173.285899
 20
176.652039
 42
1.0
  0
VERTEX
  8
001
 10
172.785899
 20
176.652039
 42
1.0
  0
SEQEND
  8
001
  0
POLYLINE
  8
001
 66
     1
 70
     1
 40
0.5
 41
0.5
  0
VERTEX
  8
001
 10
173.347487
 20
168.92881
 42
1.0
  0
VERTEX
  8
001
 10
172.847487
 20
168.92881
 42
1.0
  0
SEQEND
  8
001
  0
POLYLINE
  8
001
 66
     1
  0
VERTEX
  8
001
 10
173.035899
 20
176.652039
  0
VERTEX
  8
001
 10
183.230078
 20
161.515229
  0
VERTEX
  8
001
 10
193.422078
 20
161.515229
  0
SEQEND
  8
001
  0
POLYLINE
  8
001
 66
     1
  0
VERTEX
  8
001
 10
173.097487
 20
168.92881
  0
VERTEX
  8
001
 10
183.230078
 20
161.515229
  0
SEQEND
  8
001
  0
ENDBLK
  8
001
  0
BLOCK
  8
001
  2
*D6
 70
     1
 10
0.0
 20
0.0
  0
LINE
  8
001
 10
99.830116
 20
175.963387
 11
99.830116
 21
150.443491
  0
LINE
  8
001
 10
89.830116
 20
166.463387
 11
89.830116
 21
150.443491
  0
LINE
  8
001
 10
99.830116
 20
151.443491
 11
89.830116
 21
151.443491
  0
POLYLINE
  8
001
 66
     1
  0
VERTEX
  8
001
 10
101.830116
 20
150.907593
  0
VERTEX
  8
001
 10
99.830116
 20
151.443491
  0
VERTEX
  8
001
 10
101.830116
 20
151.97939
  0
SEQEND
  8
001
  0
POLYLINE
  8
001
 66
     1
  0
VERTEX
  8
001
 10
87.830116
 20
151.97939
  0
VERTEX
  8
001
 10
89.830116
 20
151.443491
  0
VERTEX
  8
001
 10
87.830116
 20
150.907593
  0
SEQEND
  8
001
  0
TEXT
  8
001
 10
91.734116
 20
152.443491
 40
3.6
  1
10
 41
1.146667
  0
POINT
  8
001
 10
99.830116
 20
175.963387
  0
POINT
  8
001
 10
89.830116
 20
166.463387
  0
POINT
  8
001
 10
89.830116
 20
151.443491
  0
LINE
  8
001
 10
99.830116
 20
151.443491
 11
102.830116
 21
151.443491
  0
LINE
  8
001
 10
89.830116
 20
151.443491
 11
86.830116
 21
151.443491
  0
ENDBLK
  8
001
  0
ENDSEC
  0
SECTION
  2
ENTITIES
  0
INSERT
  8
001
  6
BYBLOCK
 62
     0
  2
DIM-1
 10
0.0
 20
0.0
  0
DIMENSION
  8
001
  2
*D1
 10
119.830116
 20
205.297667
 11
101.734116
 21
206.297667
 13
89.830116
 23
193.463387
 14
119.830116
 24
193.963387
  0
DIMENSION
  8
001
  2
*D2
 10
136.834859
 20
166.963387
 11
135.834859
 21
175.319387
 13
120.830116
 23
192.963387
 14
120.830116
 24
166.963387
 50
270.0
  0
INSERT
  8
001
  6
BYBLOCK
 62
     0
  2
DIM-2
 10
0.0
 20
0.0
  0
INSERT
  8
001
  6
BYBLOCK
 62
     0
  2
DIM-3
 10
0.0
 20
0.0
  0
INSERT
  8
001
  6
BYBLOCK
 62
     0
  2
DIM-4
 10
0.0
 20
0.0
  0
DIMENSION
  8
001
  2
*D6
 10
89.830116
 20
151.443491
 11
91.734116
 21
152.443491
 13
99.830116
 23
175.963387
 14
89.830116
 24
166.463387
 50
180.0
  0
LINE
  8
001
 10
0.0
 20
297.0
 11
0.0
 21
0.0
  0
LINE
  8
001
 10
0.0
 20
0.0
 11
210.0
 21
0.0
  0
LINE
  8
001
 10
210.0
 20
0.0
 11
210.0
 21
297.0
  0
LINE
  8
001
 10
210.0
 20
297.0
 11
0.0
 21
297.0
  0
TEXT
  8
001
 10
147.594426
 20
21.847548
 40
3.6
  1
KM-T0025
 41
0.897391
  0
LINE
  8
001
 62
     3
 10
89.830116
 20
192.463387
 11
89.830116
 21
167.463387
  0
LINE
  8
001
  6
DASHED
 10
101.830116
 20
177.563387
 11
89.830116
 21
177.563387
  0
LINE
  8
001
  6
DASHED
 10
101.830116
 20
182.363387
 11
89.830116
 21
182.363387
  0
LINE
  8
001
  6
DASHED
 10
99.830116
 20
176.963387
 11
89.830116
 21
176.963387
  0
LINE
  8
001
  6
DASHED
 10
99.830116
 20
182.963387
 11
89.830116
 21
182.963387
  0
LINE
  8
001
 62
     3
 10
90.330116
 20
166.963387
 11
89.830116
 21
167.463387
  0
LINE
  8
001
 62
     3
 10
89.830116
 20
192.463387
 11
90.330116
 21
192.963387
  0
LINE
  8
001
 62
     3
 10
119.830116
 20
166.963387
 11
119.830116
 21
192.963387
  0
LINE
  8
001
  6
DASHED
 10
109.830116
 20
169.463387
 11
119.830116
 21
169.463387
  0
LINE
  8
001
  6
DASHED
 10
109.830116
 20
190.463387
 11
119.830116
 21
190.463387
  0
LINE
  8
001
 62
     3
 10
90.330116
 20
166.963387
 11
119.830116
 21
166.963387
  0
LINE
  8
001
 62
     3
 10
90.330116
 20
192.963387
 11
119.830116
 21
192.963387
  0
LINE
  8
001
  6
DASHED
 10
99.830116
 20
176.963387
 11
100.430116
 21
177.563387
  0
LINE
  8
001
  6
DASHED
 10
99.830116
 20
182.963387
 11
100.430116
 21
182.363387
  0
LINE
  8
001
  6
DASHED
 10
99.830116
 20
182.963387
 11
99.830116
 21
176.963387
  0
LINE
  8
001
  6
DASHED
 10
100.430116
 20
177.563387
 11
100.430116
 21
182.363387
  0
CIRCLE
  8
001
 62
     3
 10
169.565151
 20
179.963387
 40
13.0
  0
CIRCLE
  8
001
 10
169.565151
 20
179.963387
 40
9.0
  0
CIRCLE
  8
001
 10
169.565151
 20
179.963387
 40
10.5
  0
LINE
  8
001
  6
CENTER
 10
154.565151
 20
179.963387
 11
184.565151
 21
179.963387
  0
LINE
  8
001
  6
CENTER
 10
169.565151
 20
164.963387
 11
169.565151
 21
194.963387
  0
CIRCLE
  8
001
 62
     3
 10
55.095082
 20
179.963387
 40
13.0
  0
LINE
  8
001
  6
CENTER
 10
70.095082
 20
179.963387
 11
40.095082
 21
179.963387
  0
LINE
  8
001
  6
CENTER
 10
55.095082
 20
164.963387
 11
55.095082
 21
194.963387
  0
CIRCLE
  8
001
 10
55.095082
 20
179.963387
 40
2.4
  0
CIRCLE
  8
001
 10
55.095082
 20
179.963387
 40
3.0
  0
LINE
  8
001
 10
90.330116
 20
192.963387
 11
90.330116
 21
166.963387
  0
LINE
  8
001
  6
DASHED
 10
103.215757
 20
179.963387
 11
101.830116
 21
177.563387
  0
LINE
  8
001
  6
DASHED
 10
101.830116
 20
177.563387
 11
101.830116
 21
182.363387
  0
LINE
  8
001
  6
DASHED
 10
103.215757
 20
179.963387
 11
101.830116
 21
182.363387
  0
LINE
  8
001
  6
DASHED
 10
109.830116
 20
188.963387
 11
119.830116
 21
188.963387
  0
LINE
  8
001
  6
DASHED
 10
109.830116
 20
170.963387
 11
119.830116
 21
170.963387
  0
LINE
  8
001
  6
CENTER
 10
86.904538
 20
179.963387
 11
122.95047
 21
179.963387
  0
TEXT
  8
001
 10
75.515031
 20
113.29138
 40
3.6
  1
表面処理：　ニッケルメッキ　
 41
0.716667
  0
LINE
  8
001
 10
75.515031
 20
112.29138
 11
118.859031
 21
112.29138
  0
ENDSEC
  0
EOF
