  0
SECTION
  2
HEADER
  9
$ACADVER
  1
AC1003
  9
$INSBASE
 10
0.0
 20
0.0
  9
$EXTMIN
 10
0.0
 20
0.0
  9
$EXTMAX
 10
210.0
 20
297.0
  9
$LIMMIN
 10
0.0
 20
0.0
  9
$LIMMAX
 10
12.0
 20
9.0
  9
$VIEWCTR
 10
6.591288
 20
4.579184
  9
$VIEWSIZE
 40
9.158369
  9
$SNAPMODE
 70
     0
  9
$SNAPUNIT
 10
1.0
 20
1.0
  9
$SNAPBASE
 10
0.0
 20
0.0
  9
$SNAPANG
 50
0.0
  9
$SNAPSTYLE
 70
     0
  9
$SNAPISOPAIR
 70
     0
  9
$GRIDMODE
 70
     0
  9
$GRIDUNIT
 10
0.0
 20
0.0
  9
$ORTHOMODE
 70
     0
  9
$REGENMODE
 70
     1
  9
$FILLMODE
 70
     1
  9
$QTEXTMODE
 70
     0
  9
$DRAGMODE
 70
     2
  9
$LTSCALE
 40
4.95
  9
$OSMODE
 70
     0
  9
$ATTMODE
 70
     1
  9
$TEXTSIZE
 40
3.2
  9
$TRACEWID
 40
0.05
  9
$TEXTSTYLE
  7
STANDARD
  9
$CLAYER
  8
0
  9
$CELTYPE
  6
CONTINUOUS
  9
$CECOLOR
 62
   256
  9
$DIMSCALE
 40
1.0
  9
$DIMASZ
 40
0.18
  9
$DIMEXO
 40
0.0625
  9
$DIMDLI
 40
0.38
  9
$DIMRND
 40
0.0
  9
$DIMDLE
 40
0.0
  9
$DIMEXE
 40
0.18
  9
$DIMTP
 40
0.0
  9
$DIMTM
 40
0.0
  9
$DIMTXT
 40
0.18
  9
$DIMCEN
 40
0.09
  9
$DIMTSZ
 40
0.0
  9
$DIMTOL
 70
     0
  9
$DIMLIM
 70
     0
  9
$DIMTIH
 70
     1
  9
$DIMTOH
 70
     1
  9
$DIMSE1
 70
     0
  9
$DIMSE2
 70
     0
  9
$DIMTAD
 70
     0
  9
$DIMZIN
 70
     0
  9
$DIMBLK
  1

  9
$DIMASO
 70
     1
  9
$DIMSHO
 70
     1
  9
$DIMPOST
  1

  9
$DIMAPOST
  1

  9
$DIMALT
 70
     0
  9
$DIMALTD
 70
     2
  9
$DIMALTF
 40
25.4
  9
$DIMLFAC
 40
1.0
  9
$LUNITS
 70
     2
  9
$LUPREC
 70
     4
  9
$AXISMODE
 70
     0
  9
$AXISUNIT
 10
0.0
 20
0.0
  9
$SKETCHINC
 40
0.1
  9
$FILLETRAD
 40
0.0
  9
$AUNITS
 70
     0
  9
$AUPREC
 70
     0
  9
$MENU
  1
acad
  9
$ELEVATION
 40
0.0
  9
$THICKNESS
 40
0.0
  9
$VIEWDIR
 10
0.0
 20
0.0
 30
1.0
  9
$LIMCHECK
 70
     0
  9
$BLIPMODE
 70
     1
  9
$CHAMFERA
 40
0.0
  9
$CHAMFERB
 40
0.0
  9
$FASTZOOM
 70
     1
  9
$SKPOLY
 70
     0
  9
$TDCREATE
 40
0.000000000
  9
$TDUPDATE
 40
0.000000000
  9
$TDINDWG
 40
0.0000000000
  9
$TDUSRTIMER
 40
0.0000000000
  9
$USRTIMER
 70
     1
  9
$ANGBASE
 50
0.0
  9
$ANGDIR
 70
     0
  9
$PDMODE
 70
     0
  9
$PDSIZE
 40
0.0
  9
$PLINEWID
 40
0.0
  9
$COORDS
 70
     1
  9
$USERI1
 70
     0
  9
$USERI2
 70
     0
  9
$USERI3
 70
     0
  9
$USERI4
 70
     0
  9
$USERI5
 70
     0
  9
$USERR1
 40
0.0
  9
$USERR2
 40
0.0
  9
$USERR3
 40
0.0
  9
$USERR4
 40
0.0
  9
$USERR5
 40
0.0
  0
ENDSEC
  0
SECTION
  2
TABLES
  0
TABLE
  2
LTYPE
 70
     5
  0
LTYPE
  2
CONTINUOUS
 70
    64
  3
Solid line
 72
    65
 73
     0
 40
0.0
  0
LTYPE
  2
DASHED
 70
    64
  3
DASHED
 72
    65
 73
     2
 40
0.75
 49
0.5
 49
-0.25
  0
LTYPE
  2
HIDDEN
 70
    64
  3
HIDDEN
 72
    65
 73
     2
 40
0.375
 49
0.25
 49
-0.125
  0
LTYPE
  2
CENTER
 70
    64
  3
CENTER
 72
    65
 73
     4
 40
2.0
 49
1.25
 49
-0.25
 49
0.25
 49
-0.25
  0
LTYPE
  2
PHANTOM
 70
    64
  3
PHANTOM
 72
    65
 73
     6
 40
2.5
 49
1.25
 49
-0.25
 49
0.25
 49
-0.25
 49
0.25
 49
-0.25
  0
ENDTAB
  0
TABLE
  2
LAYER
 70
     2
  0
LAYER
  2
0
 70
     0
 62
     7
  6
CONTINUOUS
  0
LAYER
  2
001
 70
     0
 62
     7
  6
CONTINUOUS
  0
ENDTAB
  0
TABLE
  2
STYLE
 70
     2
  0
STYLE
  2
STANDARD
 70
     0
 40
0.0
 41
1.0
 50
0.0
 71
     0
 42
0.2
  3
TXT
  4
BIGFONT
  0
STYLE
  2
TATEGAKI
 70
     4
 40
1.0
 41
1.0
 50
0.0
 71
     0
 42
0.2
  3
TXT
  4
BIGFONT
  0
ENDTAB
  0
TABLE
  2
VIEW
 70
     0
  0
ENDTAB
  0
ENDSEC
  0
SECTION
  2
BLOCKS
  0
BLOCK
  8
001
  2
DIM-1
 70
     0
 10
0.0
 20
0.0
  0
TEXT
  8
001
 10
9.416167
 20
194.140683
 40
3.6
  1
Ｍ６×Ｐ１．０
 41
0.833333
  0
POLYLINE
  8
001
 66
     1
  0
VERTEX
  8
001
 10
48.899185
 20
175.663879
  0
VERTEX
  8
001
 10
49.449712
 20
173.667856
  0
VERTEX
  8
001
 10
47.97493
 20
175.121199
  0
SEQEND
  8
001
  0
POLYLINE
  8
001
 66
     1
  0
VERTEX
  8
001
 10
49.449712
 20
173.667856
  0
VERTEX
  8
001
 10
38.016167
 20
193.140683
  0
VERTEX
  8
001
 10
5.816167
 20
193.140683
  0
SEQEND
  8
001
  0
ENDBLK
  8
001
  0
BLOCK
  8
001
  2
*D1
 70
     1
 10
0.0
 20
0.0
  0
LINE
  8
001
 10
119.923454
 20
186.283841
 11
135.457245
 21
186.283841
  0
LINE
  8
001
 10
119.923454
 20
156.283841
 11
135.457245
 21
156.283841
  0
LINE
  8
001
 10
134.457245
 20
186.283841
 11
134.457245
 21
156.283841
  0
POLYLINE
  8
001
 66
     1
  0
VERTEX
  8
001
 10
133.921346
 20
184.283841
  0
VERTEX
  8
001
 10
134.457245
 20
186.283841
  0
VERTEX
  8
001
 10
134.993143
 20
184.283841
  0
SEQEND
  8
001
  0
POLYLINE
  8
001
 66
     1
  0
VERTEX
  8
001
 10
134.993143
 20
158.283841
  0
VERTEX
  8
001
 10
134.457245
 20
156.283841
  0
VERTEX
  8
001
 10
133.921346
 20
158.283841
  0
SEQEND
  8
001
  0
TEXT
  8
001
 10
133.457245
 20
166.639841
 40
3.6
  1
%%c30
 50
90.000003
 41
0.910588
  0
POINT
  8
001
 10
119.923454
 20
186.283841
  0
POINT
  8
001
 10
119.923454
 20
156.283841
  0
POINT
  8
001
 10
134.457245
 20
156.283841
  0
ENDBLK
  8
001
  0
BLOCK
  8
001
  2
*D2
 70
     1
 10
0.0
 20
0.0
  0
LINE
  8
001
 10
118.923454
 20
187.283841
 11
118.923454
 21
200.028452
  0
LINE
  8
001
 10
85.923454
 20
186.783841
 11
85.923454
 21
200.028452
  0
LINE
  8
001
 10
118.923454
 20
199.028452
 11
85.923454
 21
199.028452
  0
POLYLINE
  8
001
 66
     1
  0
VERTEX
  8
001
 10
116.923454
 20
199.564351
  0
VERTEX
  8
001
 10
118.923454
 20
199.028452
  0
VERTEX
  8
001
 10
116.923454
 20
198.492554
  0
SEQEND
  8
001
  0
POLYLINE
  8
001
 66
     1
  0
VERTEX
  8
001
 10
87.923454
 20
198.492554
  0
VERTEX
  8
001
 10
85.923454
 20
199.028452
  0
VERTEX
  8
001
 10
87.923454
 20
199.564351
  0
SEQEND
  8
001
  0
TEXT
  8
001
 10
99.327454
 20
200.028452
 40
3.6
  1
33
 41
0.86
  0
POINT
  8
001
 10
118.923454
 20
187.283841
  0
POINT
  8
001
 10
85.923454
 20
186.783841
  0
POINT
  8
001
 10
85.923454
 20
199.028452
  0
ENDBLK
  8
001
  0
BLOCK
  8
001
  2
*D3
 70
     1
 10
0.0
 20
0.0
  0
LINE
  8
001
 10
93.923454
 20
167.283841
 11
93.923454
 21
142.335288
  0
LINE
  8
001
 10
85.923454
 20
155.783841
 11
85.923454
 21
142.335288
  0
LINE
  8
001
 10
93.923454
 20
143.335288
 11
85.923454
 21
143.335288
  0
POLYLINE
  8
001
 66
     1
  0
VERTEX
  8
001
 10
95.923454
 20
142.799389
  0
VERTEX
  8
001
 10
93.923454
 20
143.335288
  0
VERTEX
  8
001
 10
95.923454
 20
143.871186
  0
SEQEND
  8
001
  0
POLYLINE
  8
001
 66
     1
  0
VERTEX
  8
001
 10
83.923454
 20
143.871186
  0
VERTEX
  8
001
 10
85.923454
 20
143.335288
  0
VERTEX
  8
001
 10
83.923454
 20
142.799389
  0
SEQEND
  8
001
  0
TEXT
  8
001
 10
79.027454
 20
144.335288
 40
3.6
  1
8
 41
0.86
  0
POINT
  8
001
 10
93.923454
 20
167.283841
  0
POINT
  8
001
 10
85.923454
 20
155.783841
  0
POINT
  8
001
 10
85.923454
 20
143.335288
  0
LINE
  8
001
 10
93.923454
 20
143.335288
 11
96.923454
 21
143.335288
  0
LINE
  8
001
 10
85.923454
 20
143.335288
 11
78.027454
 21
143.335288
  0
ENDBLK
  8
001
  0
BLOCK
  8
001
  2
DIM-2
 70
     0
 10
0.0
 20
0.0
  0
TEXT
  8
001
 10
183.308918
 20
194.811488
 40
3.6
  1
黄銅
 41
0.716667
  0
POLYLINE
  8
001
 66
     1
 70
     1
 40
0.5
 41
0.5
  0
VERTEX
  8
001
 10
175.222439
 20
181.294986
 42
1.0
  0
VERTEX
  8
001
 10
174.722439
 20
181.294986
 42
1.0
  0
SEQEND
  8
001
  0
POLYLINE
  8
001
 66
     1
  0
VERTEX
  8
001
 10
174.972439
 20
181.294986
  0
VERTEX
  8
001
 10
181.308918
 20
193.811488
  0
VERTEX
  8
001
 10
191.500918
 20
193.811488
  0
SEQEND
  8
001
  0
ENDBLK
  8
001
  0
BLOCK
  8
001
  2
DIM-3
 70
     0
 10
0.0
 20
0.0
  0
TEXT
  8
001
 10
137.941007
 20
143.093164
 40
3.6
  1
吸着面
 41
0.716667
  0
POLYLINE
  8
001
 66
     1
  0
VERTEX
  8
001
 10
119.761868
 20
161.300353
  0
VERTEX
  8
001
 10
118.923454
 20
163.193564
  0
VERTEX
  8
001
 10
120.596147
 20
161.973202
  0
SEQEND
  8
001
  0
POLYLINE
  8
001
 66
     1
  0
VERTEX
  8
001
 10
118.923454
 20
163.193564
  0
VERTEX
  8
001
 10
135.941007
 20
142.093164
  0
VERTEX
  8
001
 10
149.229007
 20
142.093164
  0
SEQEND
  8
001
  0
ENDBLK
  8
001
  0
BLOCK
  8
001
  2
DIM-4
 70
     0
 10
0.0
 20
0.0
  0
TEXT
  8
001
 10
186.070315
 20
151.787424
 40
3.6
  1
軟鋼
 41
0.716667
  0
POLYLINE
  8
001
 66
     1
 70
     1
 40
0.5
 41
0.5
  0
VERTEX
  8
001
 10
174.126136
 20
165.924235
 42
1.0
  0
VERTEX
  8
001
 10
173.626136
 20
165.924235
 42
1.0
  0
SEQEND
  8
001
  0
POLYLINE
  8
001
 66
     1
 70
     1
 40
0.5
 41
0.5
  0
VERTEX
  8
001
 10
174.187724
 20
158.201006
 42
1.0
  0
VERTEX
  8
001
 10
173.687724
 20
158.201006
 42
1.0
  0
SEQEND
  8
001
  0
POLYLINE
  8
001
 66
     1
  0
VERTEX
  8
001
 10
173.876136
 20
165.924235
  0
VERTEX
  8
001
 10
184.070315
 20
150.787424
  0
VERTEX
  8
001
 10
194.262315
 20
150.787424
  0
SEQEND
  8
001
  0
POLYLINE
  8
001
 66
     1
  0
VERTEX
  8
001
 10
173.937724
 20
158.201006
  0
VERTEX
  8
001
 10
184.070315
 20
150.787424
  0
SEQEND
  8
001
  0
ENDBLK
  8
001
  0
ENDSEC
  0
SECTION
  2
ENTITIES
  0
INSERT
  8
001
  6
BYBLOCK
 62
     0
  2
DIM-1
 10
0.0
 20
0.0
  0
DIMENSION
  8
001
  2
*D1
 10
134.457245
 20
156.283841
 11
133.457245
 21
166.639841
 13
119.923454
 23
186.283841
 14
119.923454
 24
156.283841
 50
270.0
  0
DIMENSION
  8
001
  2
*D2
 10
85.923454
 20
199.028452
 11
99.327454
 21
200.028452
 13
118.923454
 23
187.283841
 14
85.923454
 24
186.783841
 50
180.0
  0
DIMENSION
  8
001
  2
*D3
 10
85.923454
 20
143.335288
 11
79.027454
 21
144.335288
 13
93.923454
 23
167.283841
 14
85.923454
 24
155.783841
 50
180.0
  0
INSERT
  8
001
  6
BYBLOCK
 62
     0
  2
DIM-2
 10
0.0
 20
0.0
  0
INSERT
  8
001
  6
BYBLOCK
 62
     0
  2
DIM-3
 10
0.0
 20
0.0
  0
INSERT
  8
001
  6
BYBLOCK
 62
     0
  2
DIM-4
 10
0.0
 20
0.0
  0
LINE
  8
001
 10
0.0
 20
297.0
 11
0.0
 21
0.0
  0
LINE
  8
001
 10
0.0
 20
0.0
 11
210.0
 21
0.0
  0
LINE
  8
001
 10
210.0
 20
0.0
 11
210.0
 21
297.0
  0
LINE
  8
001
 10
210.0
 20
297.0
 11
0.0
 21
297.0
  0
TEXT
  8
001
 10
147.594426
 20
21.847548
 40
3.6
  1
KM-T003
 41
0.903
  0
LINE
  8
001
 62
     3
 10
85.923454
 20
185.783841
 11
85.923454
 21
156.783841
  0
LINE
  8
001
  6
DASHED
 10
95.923454
 20
168.883841
 11
85.923454
 21
168.883841
  0
LINE
  8
001
  6
DASHED
 10
93.923454
 20
168.283841
 11
85.923454
 21
168.283841
  0
LINE
  8
001
  6
DASHED
 10
93.923454
 20
174.283841
 11
85.923454
 21
174.283841
  0
LINE
  8
001
  6
DASHED
 10
95.923454
 20
173.683841
 11
85.923454
 21
173.683841
  0
LINE
  8
001
 62
     3
 10
86.423454
 20
156.283841
 11
85.923454
 21
156.783841
  0
LINE
  8
001
 62
     3
 10
85.923454
 20
185.783841
 11
86.423454
 21
186.283841
  0
LINE
  8
001
 62
     3
 10
118.923454
 20
156.283841
 11
118.923454
 21
186.283841
  0
LINE
  8
001
 62
     3
 10
86.423454
 20
156.283841
 11
118.923454
 21
156.283841
  0
LINE
  8
001
 62
     3
 10
86.423454
 20
186.283841
 11
118.923454
 21
186.283841
  0
LINE
  8
001
  6
CENTER
 10
83.645388
 20
171.283841
 11
120.354419
 21
171.283841
  0
LINE
  8
001
  6
DASHED
 10
105.923454
 20
182.783841
 11
118.923454
 21
182.783841
  0
LINE
  8
001
  6
DASHED
 10
105.923454
 20
159.783841
 11
118.923454
 21
159.783841
  0
LINE
  8
001
  6
DASHED
 10
93.923454
 20
174.283841
 11
93.923454
 21
168.283841
  0
LINE
  8
001
  6
DASHED
 10
94.523454
 20
168.883841
 11
94.523454
 21
173.683841
  0
LINE
  8
001
  6
DASHED
 10
93.923454
 20
168.283841
 11
94.523454
 21
168.883841
  0
LINE
  8
001
  6
DASHED
 10
93.923454
 20
174.283841
 11
94.523454
 21
173.683841
  0
CIRCLE
  8
001
 62
     3
 10
170.576076
 20
171.283841
 40
15.0
  0
CIRCLE
  8
001
 10
170.576076
 20
171.283841
 40
10.0
  0
CIRCLE
  8
001
 10
170.576076
 20
171.283841
 40
11.5
  0
LINE
  8
001
  6
CENTER
 10
151.736651
 20
171.283841
 11
188.393187
 21
171.283841
  0
LINE
  8
001
  6
CENTER
 10
170.576076
 20
189.160684
 11
170.576076
 21
151.844059
  0
LINE
  8
001
 10
86.423454
 20
186.283841
 11
86.423454
 21
156.283841
  0
CIRCLE
  8
001
 62
     3
 10
51.270831
 20
171.283841
 40
15.0
  0
LINE
  8
001
  6
CENTER
 10
70.110256
 20
171.283841
 11
33.45372
 21
171.283841
  0
LINE
  8
001
  6
CENTER
 10
51.270831
 20
189.160684
 11
51.270831
 21
151.844059
  0
CIRCLE
  8
001
 10
51.270831
 20
171.283841
 40
2.4
  0
CIRCLE
  8
001
 10
51.270831
 20
171.283841
 40
3.0
  0
LINE
  8
001
  6
DASHED
 10
105.923454
 20
181.283841
 11
118.923454
 21
181.283841
  0
LINE
  8
001
  6
DASHED
 10
105.923454
 20
161.283841
 11
118.923454
 21
161.283841
  0
LINE
  8
001
  6
DASHED
 10
97.309094
 20
171.283841
 11
95.923454
 21
173.683841
  0
LINE
  8
001
  6
DASHED
 10
95.923454
 20
168.883841
 11
95.923454
 21
173.683841
  0
LINE
  8
001
  6
DASHED
 10
97.309094
 20
171.283841
 11
95.923454
 21
168.883841
  0
TEXT
  8
001
 10
76.525957
 20
104.611835
 40
3.6
  1
表面処理：　ニッケルメッキ　
 41
0.716667
  0
LINE
  8
001
 10
76.525957
 20
103.611835
 11
119.869956
 21
103.611835
  0
ENDSEC
  0
EOF
