  0
SECTION
  2
HEADER
  9
$ACADVER
  1
AC1003
  9
$INSBASE
 10
0.0
 20
0.0
  9
$EXTMIN
 10
0.0
 20
0.0
  9
$EXTMAX
 10
210.0
 20
297.0
  9
$LIMMIN
 10
0.0
 20
0.0
  9
$LIMMAX
 10
12.0
 20
9.0
  9
$VIEWCTR
 10
6.591288
 20
4.579184
  9
$VIEWSIZE
 40
9.158369
  9
$SNAPMODE
 70
     0
  9
$SNAPUNIT
 10
1.0
 20
1.0
  9
$SNAPBASE
 10
0.0
 20
0.0
  9
$SNAPANG
 50
0.0
  9
$SNAPSTYLE
 70
     0
  9
$SNAPISOPAIR
 70
     0
  9
$GRIDMODE
 70
     0
  9
$GRIDUNIT
 10
0.0
 20
0.0
  9
$ORTHOMODE
 70
     0
  9
$REGENMODE
 70
     1
  9
$FILLMODE
 70
     1
  9
$QTEXTMODE
 70
     0
  9
$DRAGMODE
 70
     2
  9
$LTSCALE
 40
4.95
  9
$OSMODE
 70
     0
  9
$ATTMODE
 70
     1
  9
$TEXTSIZE
 40
3.2
  9
$TRACEWID
 40
0.05
  9
$TEXTSTYLE
  7
STANDARD
  9
$CLAYER
  8
0
  9
$CELTYPE
  6
CONTINUOUS
  9
$CECOLOR
 62
   256
  9
$DIMSCALE
 40
1.0
  9
$DIMASZ
 40
0.18
  9
$DIMEXO
 40
0.0625
  9
$DIMDLI
 40
0.38
  9
$DIMRND
 40
0.0
  9
$DIMDLE
 40
0.0
  9
$DIMEXE
 40
0.18
  9
$DIMTP
 40
0.0
  9
$DIMTM
 40
0.0
  9
$DIMTXT
 40
0.18
  9
$DIMCEN
 40
0.09
  9
$DIMTSZ
 40
0.0
  9
$DIMTOL
 70
     0
  9
$DIMLIM
 70
     0
  9
$DIMTIH
 70
     1
  9
$DIMTOH
 70
     1
  9
$DIMSE1
 70
     0
  9
$DIMSE2
 70
     0
  9
$DIMTAD
 70
     0
  9
$DIMZIN
 70
     0
  9
$DIMBLK
  1

  9
$DIMASO
 70
     1
  9
$DIMSHO
 70
     1
  9
$DIMPOST
  1

  9
$DIMAPOST
  1

  9
$DIMALT
 70
     0
  9
$DIMALTD
 70
     2
  9
$DIMALTF
 40
25.4
  9
$DIMLFAC
 40
1.0
  9
$LUNITS
 70
     2
  9
$LUPREC
 70
     4
  9
$AXISMODE
 70
     0
  9
$AXISUNIT
 10
0.0
 20
0.0
  9
$SKETCHINC
 40
0.1
  9
$FILLETRAD
 40
0.0
  9
$AUNITS
 70
     0
  9
$AUPREC
 70
     0
  9
$MENU
  1
acad
  9
$ELEVATION
 40
0.0
  9
$THICKNESS
 40
0.0
  9
$VIEWDIR
 10
0.0
 20
0.0
 30
1.0
  9
$LIMCHECK
 70
     0
  9
$BLIPMODE
 70
     1
  9
$CHAMFERA
 40
0.0
  9
$CHAMFERB
 40
0.0
  9
$FASTZOOM
 70
     1
  9
$SKPOLY
 70
     0
  9
$TDCREATE
 40
0.000000000
  9
$TDUPDATE
 40
0.000000000
  9
$TDINDWG
 40
0.0000000000
  9
$TDUSRTIMER
 40
0.0000000000
  9
$USRTIMER
 70
     1
  9
$ANGBASE
 50
0.0
  9
$ANGDIR
 70
     0
  9
$PDMODE
 70
     0
  9
$PDSIZE
 40
0.0
  9
$PLINEWID
 40
0.0
  9
$COORDS
 70
     1
  9
$USERI1
 70
     0
  9
$USERI2
 70
     0
  9
$USERI3
 70
     0
  9
$USERI4
 70
     0
  9
$USERI5
 70
     0
  9
$USERR1
 40
0.0
  9
$USERR2
 40
0.0
  9
$USERR3
 40
0.0
  9
$USERR4
 40
0.0
  9
$USERR5
 40
0.0
  0
ENDSEC
  0
SECTION
  2
TABLES
  0
TABLE
  2
LTYPE
 70
     5
  0
LTYPE
  2
CONTINUOUS
 70
    64
  3
Solid line
 72
    65
 73
     0
 40
0.0
  0
LTYPE
  2
DASHED
 70
    64
  3
DASHED
 72
    65
 73
     2
 40
0.75
 49
0.5
 49
-0.25
  0
LTYPE
  2
HIDDEN
 70
    64
  3
HIDDEN
 72
    65
 73
     2
 40
0.375
 49
0.25
 49
-0.125
  0
LTYPE
  2
CENTER
 70
    64
  3
CENTER
 72
    65
 73
     4
 40
2.0
 49
1.25
 49
-0.25
 49
0.25
 49
-0.25
  0
LTYPE
  2
PHANTOM
 70
    64
  3
PHANTOM
 72
    65
 73
     6
 40
2.5
 49
1.25
 49
-0.25
 49
0.25
 49
-0.25
 49
0.25
 49
-0.25
  0
ENDTAB
  0
TABLE
  2
LAYER
 70
     2
  0
LAYER
  2
0
 70
     0
 62
     7
  6
CONTINUOUS
  0
LAYER
  2
001
 70
     0
 62
     7
  6
CONTINUOUS
  0
ENDTAB
  0
TABLE
  2
STYLE
 70
     2
  0
STYLE
  2
STANDARD
 70
     0
 40
0.0
 41
1.0
 50
0.0
 71
     0
 42
0.2
  3
TXT
  4
BIGFONT
  0
STYLE
  2
TATEGAKI
 70
     4
 40
1.0
 41
1.0
 50
0.0
 71
     0
 42
0.2
  3
TXT
  4
BIGFONT
  0
ENDTAB
  0
TABLE
  2
VIEW
 70
     0
  0
ENDTAB
  0
ENDSEC
  0
SECTION
  2
BLOCKS
  0
BLOCK
  8
001
  2
DIM-1
 70
     0
 10
0.0
 20
0.0
  0
TEXT
  8
001
 10
154.570443
 20
205.945817
 40
3.6
  1
黄銅
 41
0.716667
  0
POLYLINE
  8
001
 66
     1
 70
     1
 40
0.5
 41
0.5
  0
VERTEX
  8
001
 10
146.483964
 20
192.429316
 42
1.0
  0
VERTEX
  8
001
 10
145.983964
 20
192.429316
 42
1.0
  0
SEQEND
  8
001
  0
POLYLINE
  8
001
 66
     1
  0
VERTEX
  8
001
 10
146.233964
 20
192.429316
  0
VERTEX
  8
001
 10
152.570443
 20
204.945817
  0
VERTEX
  8
001
 10
162.762443
 20
204.945817
  0
SEQEND
  8
001
  0
ENDBLK
  8
001
  0
BLOCK
  8
001
  2
DIM-2
 70
     0
 10
0.0
 20
0.0
  0
TEXT
  8
001
 10
156.468647
 20
165.009941
 40
3.6
  1
軟鋼
 41
0.716667
  0
POLYLINE
  8
001
 66
     1
 70
     1
 40
0.5
 41
0.5
  0
VERTEX
  8
001
 10
144.524469
 20
179.146752
 42
1.0
  0
VERTEX
  8
001
 10
144.024469
 20
179.146752
 42
1.0
  0
SEQEND
  8
001
  0
POLYLINE
  8
001
 66
     1
 70
     1
 40
0.5
 41
0.5
  0
VERTEX
  8
001
 10
145.205082
 20
172.381453
 42
1.0
  0
VERTEX
  8
001
 10
144.705082
 20
172.381453
 42
1.0
  0
SEQEND
  8
001
  0
POLYLINE
  8
001
 66
     1
  0
VERTEX
  8
001
 10
144.274469
 20
179.146752
  0
VERTEX
  8
001
 10
154.468647
 20
164.009941
  0
VERTEX
  8
001
 10
164.660647
 20
164.009941
  0
SEQEND
  8
001
  0
POLYLINE
  8
001
 66
     1
  0
VERTEX
  8
001
 10
144.955082
 20
172.381453
  0
VERTEX
  8
001
 10
154.468647
 20
164.009941
  0
SEQEND
  8
001
  0
ENDBLK
  8
001
  0
BLOCK
  8
001
  2
DIM-3
 70
     0
 10
0.0
 20
0.0
  0
TEXT
  8
001
 10
95.96888
 20
160.87688
 40
3.6
  1
吸着面
 41
0.833333
  0
POLYLINE
  8
001
 66
     1
  0
VERTEX
  8
001
 10
84.28961
 20
175.89633
  0
VERTEX
  8
001
 10
83.92821
 20
177.935098
  0
VERTEX
  8
001
 10
85.260576
 20
176.350173
  0
SEQEND
  8
001
  0
POLYLINE
  8
001
 66
     1
  0
VERTEX
  8
001
 10
83.92821
 20
177.935098
  0
VERTEX
  8
001
 10
92.36888
 20
159.87688
  0
VERTEX
  8
001
 10
110.16888
 20
159.87688
  0
SEQEND
  8
001
  0
ENDBLK
  8
001
  0
BLOCK
  8
001
  2
*D3
 70
     1
 10
0.0
 20
0.0
  0
LINE
  8
001
 10
73.92821
 20
196.552899
 11
73.92821
 21
205.469519
  0
LINE
  8
001
 10
83.92821
 20
196.852899
 11
83.92821
 21
205.469519
  0
LINE
  8
001
 10
73.92821
 20
204.469519
 11
83.92821
 21
204.469519
  0
POLYLINE
  8
001
 66
     1
  0
VERTEX
  8
001
 10
75.92821
 20
203.933621
  0
VERTEX
  8
001
 10
73.92821
 20
204.469519
  0
VERTEX
  8
001
 10
75.92821
 20
205.005417
  0
SEQEND
  8
001
  0
POLYLINE
  8
001
 66
     1
  0
VERTEX
  8
001
 10
81.92821
 20
205.005417
  0
VERTEX
  8
001
 10
83.92821
 20
204.469519
  0
VERTEX
  8
001
 10
81.92821
 20
203.933621
  0
SEQEND
  8
001
  0
TEXT
  8
001
 10
75.42821
 20
205.469519
 40
3.6
  1
10
 41
1.333333
  0
POINT
  8
001
 10
73.92821
 20
196.552899
  0
POINT
  8
001
 10
83.92821
 20
196.852899
  0
POINT
  8
001
 10
83.92821
 20
204.469519
  0
ENDBLK
  8
001
  0
BLOCK
  8
001
  2
*D4
 70
     1
 10
0.0
 20
0.0
  0
LINE
  8
001
 10
84.92821
 20
195.552899
 11
99.202284
 21
195.552899
  0
LINE
  8
001
 10
84.92821
 20
171.552899
 11
99.202284
 21
171.552899
  0
LINE
  8
001
 10
98.202284
 20
195.552899
 11
98.202284
 21
171.552899
  0
POLYLINE
  8
001
 66
     1
  0
VERTEX
  8
001
 10
97.666386
 20
193.552899
  0
VERTEX
  8
001
 10
98.202284
 20
195.552899
  0
VERTEX
  8
001
 10
98.738183
 20
193.552899
  0
SEQEND
  8
001
  0
POLYLINE
  8
001
 66
     1
  0
VERTEX
  8
001
 10
98.738183
 20
173.552899
  0
VERTEX
  8
001
 10
98.202284
 20
171.552899
  0
VERTEX
  8
001
 10
97.666386
 20
173.552899
  0
SEQEND
  8
001
  0
TEXT
  8
001
 10
97.202284
 20
178.252899
 40
3.6
  1
%%c24
 50
90.000003
  0
POINT
  8
001
 10
84.92821
 20
195.552899
  0
POINT
  8
001
 10
84.92821
 20
171.552899
  0
POINT
  8
001
 10
98.202284
 20
171.552899
  0
ENDBLK
  8
001
  0
BLOCK
  8
001
  2
*D5
 70
     1
 10
0.0
 20
0.0
  0
LINE
  8
001
 10
72.92821
 20
196.052899
 11
60.068139
 21
196.052899
  0
LINE
  8
001
 10
72.92821
 20
171.052899
 11
60.068139
 21
171.052899
  0
LINE
  8
001
 10
61.068139
 20
196.052899
 11
61.068139
 21
171.052899
  0
POLYLINE
  8
001
 66
     1
  0
VERTEX
  8
001
 10
60.532241
 20
194.052899
  0
VERTEX
  8
001
 10
61.068139
 20
196.052899
  0
VERTEX
  8
001
 10
61.604038
 20
194.052899
  0
SEQEND
  8
001
  0
POLYLINE
  8
001
 66
     1
  0
VERTEX
  8
001
 10
61.604038
 20
173.052899
  0
VERTEX
  8
001
 10
61.068139
 20
171.052899
  0
VERTEX
  8
001
 10
60.532241
 20
173.052899
  0
SEQEND
  8
001
  0
TEXT
  8
001
 10
60.068139
 20
178.252899
 40
3.6
  1
%%c25
 50
90.000003
  0
POINT
  8
001
 10
72.92821
 20
196.052899
  0
POINT
  8
001
 10
72.92821
 20
171.052899
  0
POINT
  8
001
 10
61.068139
 20
171.052899
  0
ENDBLK
  8
001
  0
ENDSEC
  0
SECTION
  2
ENTITIES
  0
INSERT
  8
001
  6
BYBLOCK
 62
     0
  2
DIM-1
 10
0.0
 20
0.0
  0
INSERT
  8
001
  6
BYBLOCK
 62
     0
  2
DIM-2
 10
0.0
 20
0.0
  0
INSERT
  8
001
  6
BYBLOCK
 62
     0
  2
DIM-3
 10
0.0
 20
0.0
  0
DIMENSION
  8
001
  2
*D3
 10
83.92821
 20
204.469519
 11
75.42821
 21
205.469519
 13
73.92821
 23
196.552899
 14
83.92821
 24
196.852899
  0
DIMENSION
  8
001
  2
*D4
 10
98.202284
 20
171.552899
 11
97.202284
 21
178.252899
 13
84.92821
 23
195.552899
 14
84.92821
 24
171.552899
 50
270.0
  0
DIMENSION
  8
001
  2
*D5
 10
61.068139
 20
171.052899
 11
60.068139
 21
178.252899
 13
72.92821
 23
196.052899
 14
72.92821
 24
171.052899
 50
270.0
  0
LINE
  8
001
  6
CENTER
 10
71.153077
 20
183.552899
 11
86.053367
 21
183.552899
  0
LINE
  8
001
  6
CENTER
 10
141.271067
 20
198.552899
 11
141.271067
 21
168.552899
  0
LINE
  8
001
  6
CENTER
 10
126.271067
 20
183.552899
 11
156.271067
 21
183.552899
  0
LINE
  8
001
 10
0.0
 20
297.0
 11
210.0
 21
297.0
  0
LINE
  8
001
 10
210.0
 20
297.0
 11
210.0
 21
0.0
  0
LINE
  8
001
 10
210.0
 20
0.0
 11
0.0
 21
0.0
  0
LINE
  8
001
 10
0.0
 20
297.0
 11
0.0
 21
0.0
  0
TEXT
  8
001
 10
91.858591
 20
121.114529
 40
3.6
  1
表面処理：　ニッケルメッキ　
 41
0.716667
  0
LINE
  8
001
 10
91.858591
 20
120.114529
 11
135.20259
 21
120.114529
  0
LINE
  8
001
 62
     3
 10
73.92821
 20
171.552899
 11
73.92821
 21
195.552899
  0
LINE
  8
001
 10
74.42821
 20
171.052899
 11
74.42821
 21
196.052899
  0
LINE
  8
001
 62
     3
 10
80.72821
 20
171.052899
 11
74.42821
 21
171.052899
  0
LINE
  8
001
 62
     3
 10
80.72821
 20
196.052899
 11
74.42821
 21
196.052899
  0
LINE
  8
001
 62
     3
 10
83.92821
 20
195.352899
 11
83.92821
 21
171.752899
  0
LINE
  8
001
 62
     3
 10
74.42821
 20
196.052899
 11
73.92821
 21
195.552899
  0
LINE
  8
001
 62
     3
 10
73.92821
 20
171.552899
 11
74.42821
 21
171.052899
  0
LINE
  8
001
 62
     3
 10
83.72821
 20
171.552899
 11
80.92821
 21
171.552899
  0
LINE
  8
001
 62
     3
 10
83.72821
 20
195.552899
 11
80.92821
 21
195.552899
  0
LINE
  8
001
 62
     3
 10
80.92821
 20
171.252899
 11
80.92821
 21
195.852899
  0
LINE
  8
001
 62
     3
 10
80.92821
 20
195.852899
 11
80.72821
 21
196.052899
  0
LINE
  8
001
 62
     3
 10
80.92821
 20
171.252899
 11
80.72821
 21
171.052899
  0
LINE
  8
001
 10
80.72821
 20
171.052899
 11
80.72821
 21
196.052899
  0
LINE
  8
001
 10
74.42821
 20
172.131748
 11
75.507059
 21
171.052899
  0
LINE
  8
001
 10
74.42821
 20
173.545961
 11
76.921273
 21
171.052899
  0
LINE
  8
001
 10
74.42821
 20
174.960175
 11
78.335486
 21
171.052899
  0
LINE
  8
001
 10
74.42821
 20
176.374389
 11
79.7497
 21
171.052899
  0
LINE
  8
001
 10
74.42821
 20
177.788602
 11
80.72821
 21
171.488602
  0
LINE
  8
001
 10
74.42821
 20
179.202816
 11
80.72821
 21
172.902816
  0
LINE
  8
001
 10
74.42821
 20
180.617029
 11
80.72821
 21
174.317029
  0
LINE
  8
001
 10
74.42821
 20
182.031243
 11
80.72821
 21
175.731243
  0
LINE
  8
001
 10
74.42821
 20
183.445456
 11
80.72821
 21
177.145456
  0
LINE
  8
001
 10
74.42821
 20
184.85967
 11
80.72821
 21
178.55967
  0
LINE
  8
001
 10
74.42821
 20
186.273883
 11
80.72821
 21
179.973883
  0
LINE
  8
001
 10
74.42821
 20
187.688097
 11
80.72821
 21
181.388097
  0
LINE
  8
001
 10
74.42821
 20
189.102311
 11
80.72821
 21
182.802311
  0
LINE
  8
001
 10
74.42821
 20
190.516524
 11
80.72821
 21
184.216524
  0
LINE
  8
001
 10
74.42821
 20
191.930738
 11
80.72821
 21
185.630738
  0
LINE
  8
001
 10
74.42821
 20
193.344951
 11
80.72821
 21
187.044951
  0
LINE
  8
001
 10
74.42821
 20
194.759165
 11
80.72821
 21
188.459165
  0
LINE
  8
001
 10
74.54869
 20
196.052899
 11
80.72821
 21
189.873378
  0
LINE
  8
001
 10
75.962903
 20
196.052899
 11
80.72821
 21
191.287592
  0
LINE
  8
001
 10
77.377117
 20
196.052899
 11
80.72821
 21
192.701806
  0
LINE
  8
001
 10
78.79133
 20
196.052899
 11
80.72821
 21
194.116019
  0
LINE
  8
001
 10
80.205544
 20
196.052899
 11
80.72821
 21
195.530233
  0
LINE
  8
001
 10
74.42821
 20
195.909055
 11
74.572054
 21
196.052899
  0
LINE
  8
001
 10
74.42821
 20
194.494841
 11
75.986268
 21
196.052899
  0
LINE
  8
001
 10
74.42821
 20
193.080627
 11
77.400481
 21
196.052899
  0
LINE
  8
001
 10
74.42821
 20
191.666414
 11
78.814695
 21
196.052899
  0
LINE
  8
001
 10
74.42821
 20
190.2522
 11
80.228908
 21
196.052899
  0
LINE
  8
001
 10
74.42821
 20
188.837987
 11
80.72821
 21
195.137987
  0
LINE
  8
001
 10
74.42821
 20
187.423773
 11
80.72821
 21
193.723773
  0
LINE
  8
001
 10
74.42821
 20
186.00956
 11
80.72821
 21
192.30956
  0
LINE
  8
001
 10
74.42821
 20
184.595346
 11
80.72821
 21
190.895346
  0
LINE
  8
001
 10
74.42821
 20
183.181132
 11
80.72821
 21
189.481132
  0
LINE
  8
001
 10
74.42821
 20
181.766919
 11
80.72821
 21
188.066919
  0
LINE
  8
001
 10
74.42821
 20
180.352705
 11
80.72821
 21
186.652705
  0
LINE
  8
001
 10
74.42821
 20
178.938492
 11
80.72821
 21
185.238492
  0
LINE
  8
001
 10
74.42821
 20
177.524278
 11
80.72821
 21
183.824278
  0
LINE
  8
001
 10
74.42821
 20
176.110065
 11
80.72821
 21
182.410065
  0
LINE
  8
001
 10
74.42821
 20
174.695851
 11
80.72821
 21
180.995851
  0
LINE
  8
001
 10
74.42821
 20
173.281638
 11
80.72821
 21
179.581638
  0
LINE
  8
001
 10
74.42821
 20
171.867424
 11
80.72821
 21
178.167424
  0
LINE
  8
001
 10
75.027898
 20
171.052899
 11
80.72821
 21
176.75321
  0
LINE
  8
001
 10
76.442112
 20
171.052899
 11
80.72821
 21
175.338997
  0
LINE
  8
001
 10
77.856325
 20
171.052899
 11
80.72821
 21
173.924783
  0
LINE
  8
001
 10
79.270539
 20
171.052899
 11
80.72821
 21
172.51057
  0
LINE
  8
001
 10
80.684753
 20
171.052899
 11
80.72821
 21
171.096356
  0
LINE
  8
001
 62
     3
 10
83.92821
 20
171.752899
 11
83.72821
 21
171.552899
  0
LINE
  8
001
 62
     3
 10
83.92821
 20
195.352899
 11
83.72821
 21
195.552899
  0
CIRCLE
  8
001
 62
     3
 10
141.271067
 20
183.552899
 40
12.5
  0
CIRCLE
  8
001
 62
     3
 10
141.271067
 20
183.552899
 40
12.0
  0
CIRCLE
  8
001
 10
141.271067
 20
183.552899
 40
9.05
  0
CIRCLE
  8
001
 10
141.271067
 20
183.552899
 40
11.05
  0
TEXT
  8
001
 10
160.329296
 20
16.123856
 40
3.6
  1
KM-0025J
 41
0.897391
  0
LINE
  8
001
  6
DASHED
 10
83.92821
 20
194.602899
 11
79.363762
 21
194.602899
  0
LINE
  8
001
  6
DASHED
 10
83.92821
 20
192.602899
 11
79.363762
 21
192.602899
  0
LINE
  8
001
  6
DASHED
 10
83.92821
 20
172.502899
 11
79.363762
 21
172.502899
  0
LINE
  8
001
  6
DASHED
 10
83.92821
 20
174.502899
 11
79.363762
 21
174.502899
  0
ENDSEC
  0
EOF
